  0
SECTION
  2
HEADER
  9
$ACADVER
  1
AC1018
  9
$ACADMAINTVER
 70
     0
  9
$DWGCODEPAGE
  3
ANSI_1252
  9
$LASTSAVEDBY
  1
Peter
  9
$INSBASE
 10
0.0
 20
0.0
 30
0.0
  9
$EXTMIN
 10
5.736745696330154
 20
15.85599986284902
 30
0.0
  9
$EXTMAX
 10
543.0567456963304
 20
411.7759998628491
 30
0.0
  9
$LIMMIN
 10
5.736745696330154
 20
15.8559998628491
  9
$LIMMAX
 10
543.0567456963304
 20
411.7759998628491
  9
$ORTHOMODE
 70
     0
  9
$REGENMODE
 70
     1
  9
$FILLMODE
 70
     1
  9
$QTEXTMODE
 70
     0
  9
$MIRRTEXT
 70
     1
  9
$LTSCALE
 40
5.0
  9
$ATTMODE
 70
     1
  9
$TEXTSIZE
 40
3.5
  9
$TRACEWID
 40
10.0
  9
$TEXTSTYLE
  7
STANDARD
  9
$CLAYER
  8
TEXT
  9
$CELTYPE
  6
BYLAYER
  9
$CECOLOR
 62
   256
  9
$CELTSCALE
 40
1.0
  9
$DISPSILH
 70
     0
  9
$DIMSCALE
 40
1.0
  9
$DIMASZ
 40
3.0
  9
$DIMEXO
 40
2.5
  9
$DIMDLI
 40
10.0
  9
$DIMRND
 40
0.0
  9
$DIMDLE
 40
1.25
  9
$DIMEXE
 40
2.5
  9
$DIMTP
 40
0.0
  9
$DIMTM
 40
0.0
  9
$DIMTXT
 40
3.0
  9
$DIMCEN
 40
-3.0
  9
$DIMTSZ
 40
0.0
  9
$DIMTOL
 70
     0
  9
$DIMLIM
 70
     0
  9
$DIMTIH
 70
     0
  9
$DIMTOH
 70
     0
  9
$DIMSE1
 70
     0
  9
$DIMSE2
 70
     0
  9
$DIMTAD
 70
     0
  9
$DIMZIN
 70
     1
  9
$DIMBLK
  1

  9
$DIMASO
 70
     1
  9
$DIMSHO
 70
     0
  9
$DIMPOST
  1

  9
$DIMAPOST
  1

  9
$DIMALT
 70
     0
  9
$DIMALTD
 70
     2
  9
$DIMALTF
 40
0.039
  9
$DIMLFAC
 40
1.0
  9
$DIMTOFL
 70
     0
  9
$DIMTVP
 40
1.5
  9
$DIMTIX
 70
     0
  9
$DIMSOXD
 70
     0
  9
$DIMSAH
 70
     0
  9
$DIMBLK1
  1

  9
$DIMBLK2
  1

  9
$DIMSTYLE
  2
STANDARD
  9
$DIMCLRD
 70
   256
  9
$DIMCLRE
 70
   256
  9
$DIMCLRT
 70
   256
  9
$DIMTFAC
 40
1.0
  9
$DIMGAP
 40
0.09
  9
$DIMJUST
 70
     0
  9
$DIMSD1
 70
     0
  9
$DIMSD2
 70
     0
  9
$DIMTOLJ
 70
     1
  9
$DIMTZIN
 70
     0
  9
$DIMALTZ
 70
     0
  9
$DIMALTTZ
 70
     0
  9
$DIMUPT
 70
     0
  9
$DIMDEC
 70
     2
  9
$DIMTDEC
 70
     4
  9
$DIMALTU
 70
     2
  9
$DIMALTTD
 70
     2
  9
$DIMTXSTY
  7
STANDARD
  9
$DIMAUNIT
 70
     0
  9
$DIMADEC
 70
     0
  9
$DIMALTRND
 40
0.0
  9
$DIMAZIN
 70
     0
  9
$DIMDSEP
 70
    46
  9
$DIMATFIT
 70
     3
  9
$DIMFRAC
 70
     0
  9
$DIMLDRBLK
  1

  9
$DIMLUNIT
 70
     2
  9
$DIMLWD
 70
    -2
  9
$DIMLWE
 70
    -2
  9
$DIMTMOVE
 70
     0
  9
$LUNITS
 70
     2
  9
$LUPREC
 70
     2
  9
$SKETCHINC
 40
1.0
  9
$FILLETRAD
 40
5.0
  9
$AUNITS
 70
     0
  9
$AUPREC
 70
     1
  9
$MENU
  1
ACAD
  9
$ELEVATION
 40
0.0
  9
$PELEVATION
 40
0.0
  9
$THICKNESS
 40
0.0
  9
$LIMCHECK
 70
     0
  9
$CHAMFERA
 40
0.0
  9
$CHAMFERB
 40
0.0
  9
$CHAMFERC
 40
0.0
  9
$CHAMFERD
 40
0.0
  9
$SKPOLY
 70
     1
  9
$TDCREATE
 40
2450414.885427083
  9
$TDUCREATE
 40
2450414.843760417
  9
$TDUPDATE
 40
2457132.562045336
  9
$TDUUPDATE
 40
2457132.520378669
  9
$TDINDWG
 40
1.8849255208
  9
$TDUSRTIMER
 40
2457132.514316435
  9
$USRTIMER
 70
     1
  9
$ANGBASE
 50
0.0
  9
$ANGDIR
 70
     0
  9
$PDMODE
 70
     1
  9
$PDSIZE
 40
-1.0
  9
$PLINEWID
 40
0.0
  9
$SPLFRAME
 70
     0
  9
$SPLINETYPE
 70
     6
  9
$SPLINESEGS
 70
     6
  9
$HANDSEED
  5
3B99
  9
$SURFTAB1
 70
    12
  9
$SURFTAB2
 70
    12
  9
$SURFTYPE
 70
     6
  9
$SURFU
 70
    12
  9
$SURFV
 70
    12
  9
$UCSBASE
  2

  9
$UCSNAME
  2

  9
$UCSORG
 10
12.80674569633015
 20
15.8559998628491
 30
0.0
  9
$UCSXDIR
 10
1.0
 20
0.0
 30
0.0
  9
$UCSYDIR
 10
0.0
 20
1.0
 30
0.0
  9
$UCSORTHOREF
  2

  9
$UCSORTHOVIEW
 70
     0
  9
$UCSORGTOP
 10
0.0
 20
0.0
 30
0.0
  9
$UCSORGBOTTOM
 10
0.0
 20
0.0
 30
0.0
  9
$UCSORGLEFT
 10
0.0
 20
0.0
 30
0.0
  9
$UCSORGRIGHT
 10
0.0
 20
0.0
 30
0.0
  9
$UCSORGFRONT
 10
0.0
 20
0.0
 30
0.0
  9
$UCSORGBACK
 10
0.0
 20
0.0
 30
0.0
  9
$PUCSBASE
  2

  9
$PUCSNAME
  2

  9
$PUCSORG
 10
0.0
 20
0.0
 30
0.0
  9
$PUCSXDIR
 10
1.0
 20
0.0
 30
0.0
  9
$PUCSYDIR
 10
0.0
 20
1.0
 30
0.0
  9
$PUCSORTHOREF
  2

  9
$PUCSORTHOVIEW
 70
     0
  9
$PUCSORGTOP
 10
0.0
 20
0.0
 30
0.0
  9
$PUCSORGBOTTOM
 10
0.0
 20
0.0
 30
0.0
  9
$PUCSORGLEFT
 10
0.0
 20
0.0
 30
0.0
  9
$PUCSORGRIGHT
 10
0.0
 20
0.0
 30
0.0
  9
$PUCSORGFRONT
 10
0.0
 20
0.0
 30
0.0
  9
$PUCSORGBACK
 10
0.0
 20
0.0
 30
0.0
  9
$USERI1
 70
     0
  9
$USERI2
 70
     0
  9
$USERI3
 70
     0
  9
$USERI4
 70
     0
  9
$USERI5
 70
     0
  9
$USERR1
 40
0.0
  9
$USERR2
 40
0.0
  9
$USERR3
 40
0.0
  9
$USERR4
 40
0.0
  9
$USERR5
 40
0.0
  9
$WORLDVIEW
 70
     0
  9
$SHADEDGE
 70
     3
  9
$SHADEDIF
 70
    70
  9
$TILEMODE
 70
     1
  9
$MAXACTVP
 70
    16
  9
$PINSBASE
 10
0.0
 20
0.0
 30
0.0
  9
$PLIMCHECK
 70
     0
  9
$PEXTMIN
 10
1.049999952316284
 20
0.7999999523162842
 30
0.0
  9
$PEXTMAX
 10
9.449999570846556
 20
7.199999570846557
 30
0.0
  9
$PLIMMIN
 10
-0.2500002402958907
 20
-0.2499999962453767
  9
$PLIMMAX
 10
10.74999951940822
 20
8.249999763458733
  9
$UNITMODE
 70
     0
  9
$VISRETAIN
 70
     0
  9
$PLINEGEN
 70
     0
  9
$PSLTSCALE
 70
     0
  9
$TREEDEPTH
 70
  3020
  9
$CMLSTYLE
  2
STANDARD
  9
$CMLJUST
 70
     0
  9
$CMLSCALE
 40
1.0
  9
$PROXYGRAPHICS
 70
     1
  9
$MEASUREMENT
 70
     0
  9
$CELWEIGHT
370
    -1
  9
$ENDCAPS
280
     0
  9
$JOINSTYLE
280
     0
  9
$LWDISPLAY
290
     0
  9
$INSUNITS
 70
     0
  9
$HYPERLINKBASE
  1

  9
$STYLESHEET
  1
monochrome.ctb
  9
$XEDIT
290
     1
  9
$CEPSNTYPE
380
     0
  9
$PSTYLEMODE
290
     1
  9
$FINGERPRINTGUID
  2
{40822160-3361-4574-9C4C-3A641C933CEC}
  9
$VERSIONGUID
  2
{37BA2BEA-4D68-4160-A0A4-0974C6B15E01}
  9
$EXTNAMES
290
     1
  9
$PSVPSCALE
 40
0.0
  9
$OLESTARTUP
290
     0
  9
$SORTENTS
280
   127
  9
$INDEXCTL
280
     0
  9
$HIDETEXT
280
     0
  9
$XCLIPFRAME
290
     0
  9
$HALOGAP
280
     0
  9
$OBSCOLOR
 70
   257
  9
$OBSLTYPE
280
     0
  9
$INTERSECTIONDISPLAY
280
     0
  9
$INTERSECTIONCOLOR
 70
   257
  9
$DIMASSOC
280
     1
  9
$PROJECTNAME
  1

  0
ENDSEC
  0
SECTION
  2
CLASSES
  0
CLASS
  1
LWPOLYLINE
  2
AcDbPolyline
  3
ObjectDBX Classes
 90
        0
 91
        1
280
     0
281
     1
  0
CLASS
  1
DICTIONARYVAR
  2
AcDbDictionaryVar
  3
ObjectDBX Classes
 90
        0
 91
        5
280
     0
281
     0
  0
CLASS
  1
ACDBDICTIONARYWDFLT
  2
AcDbDictionaryWithDefault
  3
ObjectDBX Classes
 90
        0
 91
        5
280
     0
281
     0
  0
CLASS
  1
ACDBPLACEHOLDER
  2
AcDbPlaceHolder
  3
ObjectDBX Classes
 90
        0
 91
        1
280
     0
281
     0
  0
CLASS
  1
LAYOUT
  2
AcDbLayout
  3
ObjectDBX Classes
 90
        0
 91
        1
280
     0
281
     0
  0
CLASS
  1
TABLESTYLE
  2
AcDbTableStyle
  3
ObjectDBX Classes
 90
     4095
 91
        5
280
     0
281
     0
  0
CLASS
  1
SORTENTSTABLE
  2
AcDbSortentsTable
  3
ObjectDBX Classes
 90
        0
 91
        4
280
     0
281
     0
  0
CLASS
  1
VISUALSTYLE
  2
AcDbVisualStyle
  3
ObjectDBX Classes
 90
     4095
 91
        5
280
     0
281
     0
  0
CLASS
  1
SCALE
  2
AcDbScale
  3
ObjectDBX Classes
 90
     1153
 91
        5
280
     0
281
     0
  0
CLASS
  1
MATERIAL
  2
AcDbMaterial
  3
ObjectDBX Classes
 90
     1153
 91
        5
280
     0
281
     0
  0
CLASS
  1
MLEADERSTYLE
  2
AcDbMLeaderStyle
  3
ACDB_MLEADERSTYLE_CLASS
 90
     4095
 91
        5
280
     0
281
     0
  0
CLASS
  1
SUN
  2
AcDbSun
  3
SCENEOE
 90
     1153
 91
        5
280
     0
281
     0
  0
CLASS
  1
RASTERVARIABLES
  2
AcDbRasterVariables
  3
ISM
 90
        0
 91
        5
280
     0
281
     0
  0
CLASS
  1
CELLSTYLEMAP
  2
AcDbCellStyleMap
  3
ObjectDBX Classes
 90
     1152
 91
        5
280
     0
281
     0
  0
ENDSEC
  0
SECTION
  2
TABLES
  0
TABLE
  2
VPORT
  5
8
330
0
100
AcDbSymbolTable
 70
     3
  0
VPORT
  5
3547
330
8
100
AcDbSymbolTableRecord
100
AcDbViewportTableRecord
  2
*Active
 70
     0
 10
0.0
 20
0.0
 11
1.0
 21
1.0
 12
274.3967456963303
 22
213.8159998628491
 13
0.0
 23
0.0
 14
1.0
 24
1.0
 15
15.0
 25
15.0
 16
0.0
 26
0.0
 36
1.0
 17
0.0
 27
0.0
 37
0.0
 40
403.8384000000001
 41
2.126849894291755
 42
50.0
 43
0.0
 44
0.0
 50
0.0
 51
0.0
 71
    16
 72
  2000
 73
     1
 74
     2
 75
     0
 76
     0
 77
     0
 78
     1
281
     0
 65
     1
110
12.80674569633015
120
15.8559998628491
130
0.0
111
1.0
121
0.0
131
0.0
112
0.0
122
1.0
132
0.0
 79
     0
146
0.0
  0
ENDTAB
  0
TABLE
  2
LTYPE
  5
5
330
0
100
AcDbSymbolTable
 70
    10
  0
LTYPE
  5
13
330
5
100
AcDbSymbolTableRecord
100
AcDbLinetypeTableRecord
  2
BYBLOCK
 70
     0
  3

 72
    65
 73
     0
 40
0.0
  0
LTYPE
  5
14
330
5
100
AcDbSymbolTableRecord
100
AcDbLinetypeTableRecord
  2
BYLAYER
 70
     0
  3

 72
    65
 73
     0
 40
0.0
  0
LTYPE
  5
15
330
5
100
AcDbSymbolTableRecord
100
AcDbLinetypeTableRecord
  2
CONTINUOUS
 70
     0
  3
Solid line
 72
    65
 73
     0
 40
0.0
  0
LTYPE
  5
20
330
5
100
AcDbSymbolTableRecord
100
AcDbLinetypeTableRecord
  2
DASHED
 70
     0
  3
__ __ __ __ __ __ __ __ __ __ __ __ __ __ __
 72
    65
 73
     2
 40
0.75
 49
0.5
 74
     0
 49
-0.25
 74
     0
  0
LTYPE
  5
21
330
5
100
AcDbSymbolTableRecord
100
AcDbLinetypeTableRecord
  2
HIDDEN
 70
     0
  3
_ _ _ _ _ _ _ _ _ _ _ _ _ _ _ _ _ _ _ _ _ _ _
 72
    65
 73
     2
 40
0.375
 49
0.25
 74
     0
 49
-0.125
 74
     0
  0
LTYPE
  5
22
330
5
100
AcDbSymbolTableRecord
100
AcDbLinetypeTableRecord
  2
CENTER
 70
     0
  3
____ _ ____ _ ____ _ ____ _ ____ _ ____ _ ____
 72
    65
 73
     4
 40
2.0
 49
1.25
 74
     0
 49
-0.25
 74
     0
 49
0.25
 74
     0
 49
-0.25
 74
     0
  0
LTYPE
  5
23
330
5
100
AcDbSymbolTableRecord
100
AcDbLinetypeTableRecord
  2
CENTRE
 70
     0
  3
____ _ ____ _ ____ _ ____ _ ____ _ ____ _ ____
 72
    65
 73
     4
 40
2.0
 49
1.25
 74
     0
 49
-0.25
 74
     0
 49
0.25
 74
     0
 49
-0.25
 74
     0
  0
LTYPE
  5
24
330
5
100
AcDbSymbolTableRecord
100
AcDbLinetypeTableRecord
  2
PHANTOM
 70
     0
  3
_____ _ _ _____ _ _ _____ _ _ _____ _ _ ____
 72
    65
 73
     6
 40
2.5
 49
1.25
 74
     0
 49
-0.25
 74
     0
 49
0.25
 74
     0
 49
-0.25
 74
     0
 49
0.25
 74
     0
 49
-0.25
 74
     0
  0
LTYPE
  5
25
330
5
100
AcDbSymbolTableRecord
100
AcDbLinetypeTableRecord
  2
DOT
 70
     0
  3
...............................................
 72
    65
 73
     2
 40
0.25
 49
0.0
 74
     0
 49
-0.25
 74
     0
  0
LTYPE
  5
26
330
5
100
AcDbSymbolTableRecord
100
AcDbLinetypeTableRecord
  2
DASHDOT
 70
     0
  3
__ . __ . __ . __ . __ . __ . __ . __ . __ . __
 72
    65
 73
     4
 40
1.0
 49
0.5
 74
     0
 49
-0.25
 74
     0
 49
0.0
 74
     0
 49
-0.25
 74
     0
  0
LTYPE
  5
27
330
5
100
AcDbSymbolTableRecord
100
AcDbLinetypeTableRecord
  2
BORDER
 70
     0
  3
__ __ . __ __ . __ __ . __ __ . __ __ . __ __
 72
    65
 73
     6
 40
1.75
 49
0.5
 74
     0
 49
-0.25
 74
     0
 49
0.5
 74
     0
 49
-0.25
 74
     0
 49
0.0
 74
     0
 49
-0.25
 74
     0
  0
LTYPE
  5
28
330
5
100
AcDbSymbolTableRecord
100
AcDbLinetypeTableRecord
  2
DIVIDE
 70
     0
  3
__ . . __ . . __ . . __ . . __ . . __ . . __
 72
    65
 73
     6
 40
1.25
 49
0.5
 74
     0
 49
-0.25
 74
     0
 49
0.0
 74
     0
 49
-0.25
 74
     0
 49
0.0
 74
     0
 49
-0.25
 74
     0
  0
ENDTAB
  0
TABLE
  2
LAYER
  5
2
102
{ACAD_XDICTIONARY
360
E95
102
}
330
0
100
AcDbSymbolTable
 70
    20
  0
LAYER
  5
F
330
2
100
AcDbSymbolTableRecord
100
AcDbLayerTableRecord
  2
0
 70
     0
 62
     7
  6
CONTINUOUS
370
    -3
390
216
  0
LAYER
  5
2B
330
2
100
AcDbSymbolTableRecord
100
AcDbLayerTableRecord
  2
OUT57
 70
     0
 62
     7
  6
CONTINUOUS
370
    -3
390
216
  0
LAYER
  5
2C
330
2
100
AcDbSymbolTableRecord
100
AcDbLayerTableRecord
  2
TXT52
 70
     0
 62
     2
  6
CONTINUOUS
370
    -3
390
216
  0
LAYER
  5
2D
330
2
100
AcDbSymbolTableRecord
100
AcDbLayerTableRecord
  2
DIM34
 70
     0
 62
     3
  6
CONTINUOUS
370
    -3
390
216
  0
LAYER
  5
2E
330
2
100
AcDbSymbolTableRecord
100
AcDbLayerTableRecord
  2
HID36
 70
     0
 62
     6
  6
HIDDEN
370
    -3
390
216
  0
LAYER
  5
2F
330
2
100
AcDbSymbolTableRecord
100
AcDbLayerTableRecord
  2
CTR34
 70
     0
 62
     1
  6
CENTRE
370
    -3
390
216
  0
LAYER
  5
30
330
2
100
AcDbSymbolTableRecord
100
AcDbLayerTableRecord
  2
HAT36
 70
     0
 62
     6
  6
CONTINUOUS
370
    -3
390
216
  0
LAYER
  5
31
330
2
100
AcDbSymbolTableRecord
100
AcDbLayerTableRecord
  2
CON31
 70
     0
 62
     1
  6
CONTINUOUS
370
    -3
390
216
  0
LAYER
  5
32
330
2
100
AcDbSymbolTableRecord
100
AcDbLayerTableRecord
  2
OUT52
 70
     0
 62
     2
  6
CONTINUOUS
370
    -3
390
216
  0
LAYER
  5
33
330
2
100
AcDbSymbolTableRecord
100
AcDbLayerTableRecord
  2
TXT34
 70
     0
 62
   255
  6
CONTINUOUS
370
    -3
390
216
  0
LAYER
  5
34
330
2
100
AcDbSymbolTableRecord
100
AcDbLayerTableRecord
  2
HID34
 70
     0
 62
     5
  6
HIDDEN
370
    -3
390
216
  0
LAYER
  5
35
330
2
100
AcDbSymbolTableRecord
100
AcDbLayerTableRecord
  2
HAT34
 70
     0
 62
     5
  6
CONTINUOUS
370
    -3
390
216
  0
LAYER
  5
36
330
2
100
AcDbSymbolTableRecord
100
AcDbLayerTableRecord
  2
OUT53
 70
     0
 62
     3
  6
CONTINUOUS
370
    -3
390
216
  0
LAYER
  5
37
330
2
100
AcDbSymbolTableRecord
100
AcDbLayerTableRecord
  2
OUT55
 70
     0
 62
     5
  6
CONTINUOUS
370
    -3
390
216
  0
LAYER
  5
38
330
2
100
AcDbSymbolTableRecord
100
AcDbLayerTableRecord
  2
OUT51
 70
     0
 62
     1
  6
CONTINUOUS
370
    -3
390
216
  0
LAYER
  5
39
330
2
100
AcDbSymbolTableRecord
100
AcDbLayerTableRecord
  2
BOR51
 70
     0
 62
     1
  6
CONTINUOUS
370
    -3
390
216
  0
LAYER
  5
3A
330
2
100
AcDbSymbolTableRecord
100
AcDbLayerTableRecord
  2
TEXT
 70
     0
 62
     3
  6
CONTINUOUS
370
    -3
390
216
  0
LAYER
  5
3B
330
2
100
AcDbSymbolTableRecord
100
AcDbLayerTableRecord
  2
BOR34
 70
     0
 62
     3
  6
CONTINUOUS
370
    -3
390
216
  0
LAYER
  5
3C
330
2
100
AcDbSymbolTableRecord
100
AcDbLayerTableRecord
  2
BOR715
 70
     0
 62
    15
  6
CONTINUOUS
370
    -3
390
216
  0
LAYER
  5
170
330
2
100
AcDbSymbolTableRecord
100
AcDbLayerTableRecord
  2
DEFPOINTS
 70
     0
 62
     7
  6
CONTINUOUS
290
     0
370
    -3
390
216
  0
ENDTAB
  0
TABLE
  2
STYLE
  5
3
330
0
100
AcDbSymbolTable
 70
     3
  0
STYLE
  5
10
330
3
100
AcDbSymbolTableRecord
100
AcDbTextStyleTableRecord
  2
STANDARD
 70
     0
 40
0.0
 41
1.0
 50
0.0
 71
     0
 42
3.5
  3
simplex
  4

  0
STYLE
  5
1E
330
3
100
AcDbSymbolTableRecord
100
AcDbTextStyleTableRecord
  2
ITALICC
 70
     0
 40
3.0
 41
1.0
 50
15.0
 71
     0
 42
3.0
  3
ITALICC
  4

  0
STYLE
  5
1F
330
3
100
AcDbSymbolTableRecord
100
AcDbTextStyleTableRecord
  2
EN1
 70
     0
 40
3.0
 41
1.0
 50
0.0
 71
     0
 42
3.0
  3
txt
  4

  0
ENDTAB
  0
TABLE
  2
VIEW
  5
6
330
0
100
AcDbSymbolTable
 70
     0
  0
ENDTAB
  0
TABLE
  2
UCS
  5
7
330
0
100
AcDbSymbolTable
 70
     0
  0
ENDTAB
  0
TABLE
  2
APPID
  5
9
330
0
100
AcDbSymbolTable
 70
     6
  0
APPID
  5
11
330
9
100
AcDbSymbolTableRecord
100
AcDbRegAppTableRecord
  2
ACAD
 70
     0
  0
APPID
  5
566
330
9
100
AcDbSymbolTableRecord
100
AcDbRegAppTableRecord
  2
ACAD_EXEMPT_FROM_CAD_STANDARDS
 70
     0
  0
APPID
  5
B72
330
9
100
AcDbSymbolTableRecord
100
AcDbRegAppTableRecord
  2
ACAD_PSEXT
 70
     0
  0
APPID
  5
35FB
330
9
100
AcDbSymbolTableRecord
100
AcDbRegAppTableRecord
  2
ACAD_OBJECT_CHANGE_GUID
 70
     0
  0
APPID
  5
3601
330
9
100
AcDbSymbolTableRecord
100
AcDbRegAppTableRecord
  2
ACAD_MLEADERVER
 70
     0
  0
APPID
  5
36F5
330
9
100
AcDbSymbolTableRecord
100
AcDbRegAppTableRecord
  2
ACAD_DSTYLE_DIMRADIAL_EXTENSION
 70
     0
  0
ENDTAB
  0
TABLE
  2
DIMSTYLE
  5
A
330
0
100
AcDbSymbolTable
 70
     1
100
AcDbDimStyleTable
  0
DIMSTYLE
105
148
102
{ACAD_REACTORS
330
35AB
330
369F
330
3A6C
102
}
330
A
100
AcDbSymbolTableRecord
100
AcDbDimStyleTableRecord
  2
STANDARD
 70
     0
178
     0
340
10
  0
ENDTAB
  0
TABLE
  2
BLOCK_RECORD
  5
1
330
0
100
AcDbSymbolTable
 70
    27
  0
BLOCK_RECORD
  5
19
102
{ACAD_XDICTIONARY
360
22C
102
}
330
1
100
AcDbSymbolTableRecord
100
AcDbBlockTableRecord
  2
*MODEL_SPACE
340
219
  0
BLOCK_RECORD
  5
16
330
1
100
AcDbSymbolTableRecord
100
AcDbBlockTableRecord
  2
*PAPER_SPACE
340
21A
  0
BLOCK_RECORD
  5
1C
330
1
100
AcDbSymbolTableRecord
100
AcDbBlockTableRecord
  2
REG
340
0
102
{BLKREFS
331
5D
331
79
102
}
  0
BLOCK_RECORD
  5
1D
330
1
100
AcDbSymbolTableRecord
100
AcDbBlockTableRecord
  2
MOD
340
0
102
{BLKREFS
331
71
331
8C
331
94
102
}
  0
BLOCK_RECORD
  5
EE2
330
1
100
AcDbSymbolTableRecord
100
AcDbBlockTableRecord
  2
9gm SERVO TOP
340
0
310
2800000020000000200000000100080000000000000400000000000000000000000000000000000000000000000080000080000000808000800000008000800080800000C0C0C000C0DCC000F0CAA6000020400000206000002080000020A0000020C0000020E00000400000004020000040400000406000004080000040A0
310
000040C0000040E00000600000006020000060400000606000006080000060A0000060C0000060E00000800000008020000080400000806000008080000080A0000080C0000080E00000A0000000A0200000A0400000A0600000A0800000A0A00000A0C00000A0E00000C0000000C0200000C0400000C0600000C0800000C0
310
A00000C0C00000C0E00000E0000000E0200000E0400000E0600000E0800000E0A00000E0C00000E0E00040000000400020004000400040006000400080004000A0004000C0004000E00040200000402020004020400040206000402080004020A0004020C0004020E000404000004040200040404000404060004040800040
310
40A0004040C0004040E00040600000406020004060400040606000406080004060A0004060C0004060E00040800000408020004080400040806000408080004080A0004080C0004080E00040A0000040A0200040A0400040A0600040A0800040A0A00040A0C00040A0E00040C0000040C0200040C0400040C0600040C08000
310
40C0A00040C0C00040C0E00040E0000040E0200040E0400040E0600040E0800040E0A00040E0C00040E0E00080000000800020008000400080006000800080008000A0008000C0008000E00080200000802020008020400080206000802080008020A0008020C0008020E00080400000804020008040400080406000804080
310
008040A0008040C0008040E00080600000806020008060400080606000806080008060A0008060C0008060E00080800000808020008080400080806000808080008080A0008080C0008080E00080A0000080A0200080A0400080A0600080A0800080A0A00080A0C00080A0E00080C0000080C0200080C0400080C0600080C0
310
800080C0A00080C0C00080C0E00080E0000080E0200080E0400080E0600080E0800080E0A00080E0C00080E0E000C0000000C0002000C0004000C0006000C0008000C000A000C000C000C000E000C0200000C0202000C0204000C0206000C0208000C020A000C020C000C020E000C0400000C0402000C0404000C0406000C0
310
408000C040A000C040C000C040E000C0600000C0602000C0604000C0606000C0608000C060A000C060C000C060E000C0800000C0802000C0804000C0806000C0808000C080A000C080C000C080E000C0A00000C0A02000C0A04000C0A06000C0A08000C0A0A000C0A0C000C0A0E000C0C00000C0C02000C0C04000C0C06000
310
C0C08000C0C0A000F0FBFF00A4A0A000808080000000FF0000FF000000FFFF00FF000000FF00FF00FFFF0000FFFFFF00FFFFFFFFFFFFFFFFFFFFFFFFFFFFFFFFFFFFFFFFFFFFFFFFFFFFFFFFFFFFFFFFFFFFFFFFFFFFFFFFFFFFFFFFFFFFFFFFFFFFFFFFFFFFFFFFFFFFFFFFFFFFFFFFFFFFFFFFFFFFFFFFFFFFFFFFFFFFFF
310
FFFFFFFFFFFFFFFFFFFFFFFFFFFFFFFFFFFFFFFFFFFFFFFFFFFFFFFFFFFFFFFFFFFFFFFFFFFFFFFFFFFFFFFFFFFFFFFFFFFFFFFFFFFFFFFFFFFFFFFFFFFFFFFFFFFFFFFFFFFFFFFFFFFFFFFFFFFFFFFFFFFFFFFFFFFFFFFFFFFFFFFFFFFFFFFFFFFFFFFFFFFFFFFFFFFFFFFFFFFFFFFFFFFFFFFFFFFFFFFFFFFFFFFFFFFFFF
310
FFFFFFFFFFFFFFFFFFFFFFFFFFFFFFFFFFFFFFFFFFFFFFFFFFFFFFFFFFFFFFFFFFFFFFFFFFFFFFFFFFFFFFFFFFFFFFFFFFFFFFFFFFFFFFFFFFFFFFFFFFFFFFFFFFFFFFFFFFFFFFFFFFFFFFFFFFFFFFFFFFFFFFFFFFFFFFFFFFFFFFFFFFFFFFFFFFFFFFFFFFFFFFFFFFFFFFFFFFFFFFFFFFFFFF000000000000000000000000
310
00000000000000F900000000000000000000FFFF00FFFFFFFF00FFFFFFFFFFFFFFFFFFFFFF00FFF900FFFFFF00FFFFFFFF00FFFF00FFFFFFFF00FFFFFFFFFFFFFFFFFFFF00FFFFF9FF0000FF00FFFFFFFF00FFFF00FFFFFFFF00FFFFFFFFFFFFFFFFFF00FFFFFFF9FFFFFF0000FFFFFFFF00FFFF00FFFFFFFF00FFFFFFFFFF
310
FFFFFF00FFFFFFFFF9FFFFFF0000FFFFFFFF00FFFF00FF00FFFF00FFFFFFFFFFFFFF00FFFFFFFFFFF9FFFFFFFF00FF00FFFF00FFFF00F90000F9F9F9F9F9F9F9F900F9F9F9F9F9F9F9F9F9F9F900F9000000F9FFFF00FFFFFFFF00FFFFFFFFFFFFFF0000FFFFFFFFF9FFFFFF0000FFFFFFFF00FFFF00FFFFFFFF00FFFFFFFF
310
FFFFFFFFFF00FFFFFFF9FFFFFF0000FFFFFFFF00FFFF00FFFFFFFF00FFFFFFFFFFFFFFFFFFFF00FFFFF9FFFF00FF00FFFFFFFF00FFFF00FFFFFFFF00FFFFFFFFFFFFFFFFFFFFFF00FFF90000FFFF00FFFFFFFF00FFFF00000000000000000000000000000000000000F900000000000000000000FFFFFFFFFFFFFFFFFFFFFF
310
FFFFFFFFFFFFFFFFFFFFFFFFFFFFFFFFFFFFFFFFFFFFFFFFFFFFFFFFFFFFFFFFFFFFFFFFFFFFFFFFFFFFFFFFFFFFFFFFFFFFFFFFFFFFFFFFFFFFFFFFFFFFFFFFFFFFFFFFFFFFFFFFFFFFFFFFFFFFFFFFFFFFFFFFFFFFFFFFFFFFFFFFFFFFFFFFFFFFFFFFFFFFFFFFFFFFFFFFFFFFFFFFFFFFFFFFFFFFFFFFFFFFFFFFFFFFFF
310
FFFFFFFFFFFFFFFFFFFFFFFFFFFFFFFFFFFFFFFFFFFFFFFFFFFFFFFFFFFFFFFFFFFFFFFFFFFFFFFFFFFFFFFFFFFFFFFFFFFFFFFFFFFFFFFFFFFFFFFFFFFFFFFFFFFFFFFFFFFFFFFFFFFFFFFFFFFFFFFFFFFFFFFFFFFFFFFFFFFFFFFFFFFFFFFFFFFFFFFFFFFFFFFFFFFFFFFFFFFFFFFFFFFFFFFFFFFFFFFFFFFFFFFFFFFFFF
310
FFFFFFFFFFFFFFFFFFFFFFFFFFFFFFFFFFFFFFFFFFFFFFFFFFFFFFFFFFFFFFFFFFFFFFFFFFFFFFFFFFFFFFFFFFFFFFFFFFFFFFFFFFFFFFFF
102
{BLKREFS
331
34B2
102
}
  0
BLOCK_RECORD
  5
F4C
330
1
100
AcDbSymbolTableRecord
100
AcDbBlockTableRecord
  2
5gm SERVO TOP
340
0
310
2800000020000000200000000100080000000000000400000000000000000000000000000000000000000000000080000080000000808000800000008000800080800000C0C0C000C0DCC000F0CAA6000020400000206000002080000020A0000020C0000020E00000400000004020000040400000406000004080000040A0
310
000040C0000040E00000600000006020000060400000606000006080000060A0000060C0000060E00000800000008020000080400000806000008080000080A0000080C0000080E00000A0000000A0200000A0400000A0600000A0800000A0A00000A0C00000A0E00000C0000000C0200000C0400000C0600000C0800000C0
310
A00000C0C00000C0E00000E0000000E0200000E0400000E0600000E0800000E0A00000E0C00000E0E00040000000400020004000400040006000400080004000A0004000C0004000E00040200000402020004020400040206000402080004020A0004020C0004020E000404000004040200040404000404060004040800040
310
40A0004040C0004040E00040600000406020004060400040606000406080004060A0004060C0004060E00040800000408020004080400040806000408080004080A0004080C0004080E00040A0000040A0200040A0400040A0600040A0800040A0A00040A0C00040A0E00040C0000040C0200040C0400040C0600040C08000
310
40C0A00040C0C00040C0E00040E0000040E0200040E0400040E0600040E0800040E0A00040E0C00040E0E00080000000800020008000400080006000800080008000A0008000C0008000E00080200000802020008020400080206000802080008020A0008020C0008020E00080400000804020008040400080406000804080
310
008040A0008040C0008040E00080600000806020008060400080606000806080008060A0008060C0008060E00080800000808020008080400080806000808080008080A0008080C0008080E00080A0000080A0200080A0400080A0600080A0800080A0A00080A0C00080A0E00080C0000080C0200080C0400080C0600080C0
310
800080C0A00080C0C00080C0E00080E0000080E0200080E0400080E0600080E0800080E0A00080E0C00080E0E000C0000000C0002000C0004000C0006000C0008000C000A000C000C000C000E000C0200000C0202000C0204000C0206000C0208000C020A000C020C000C020E000C0400000C0402000C0404000C0406000C0
310
408000C040A000C040C000C040E000C0600000C0602000C0604000C0606000C0608000C060A000C060C000C060E000C0800000C0802000C0804000C0806000C0808000C080A000C080C000C080E000C0A00000C0A02000C0A04000C0A06000C0A08000C0A0A000C0A0C000C0A0E000C0C00000C0C02000C0C04000C0C06000
310
C0C08000C0C0A000F0FBFF00A4A0A000808080000000FF0000FF000000FFFF00FF000000FF00FF00FFFF0000FFFFFF00FFFFFFFFFFFFFFFFFFFFFFFFFFFFFFFFFFFFFFFFFFFFFFFFFFFFFFFFFFFFFFFFFFFFFFFFFFFFFFFFFFFFFFFFFFFFFFFFFFFFFFFFFFFFFFFFFFFFFFFFFFFFFFFFFFFFFFFFFFFFFFFFFFFFFFFFFFFFFF
310
FFFFFFFFFFFFFFFFFFFFFFFFFFFFFFFFFFFFFFFFFFFFFFFFFFFFFFFFFFFFFFFFFFFFFFFFFFFFFFFFFFFFFFFFFFFFFFFFFFFFFFFFFFFFFFFFFFFFFFFFFFFFFFFFFFFFFFFFFFFFFFFFFFFFFFFFFFFFFFFFFFFFFFFFFFFFFFFFFFFFFFFFFFFFFFFFFFFFFFFFFFFFFFFFFFFFFFFFFFFFFFFFFFFFFFFFFFFFFFFFFFFFFFFFFFFFFF
310
FFFFFFFFFFFFFFFFFFFFFFFFFFFFFFFFFFFFFFFFFFFFFFFFFFFFFFFFFFFFFFFFFFFFFFFFFFFFFFFFFFFFFFFFFFFFFFFFFFFFFFFFFFFFFFFFFFFFFFFFFFFFFFFFFFFFFFFFFFFFFFFFFFFFFFFFFFFFFFFFFFFFFFFFFFFFFFFFFFFFFFFFFFFFFFFFFFFFFFFFFFFFFFFFFFFFFFFFFFFFFFFFFFFFFFFFFFFFFFFFFFFFFFFFFFFFFF
310
FFFFFFFFFFFFFFFFFFFFFFFFFFFFFFFFFFFFFFFFFFFFFF00000000000000000000000000000000F900000000000000FFFFFFFFFF000000FFFF00FFFFFFFFFFFFFFFFFFFF0000FFF9000000FF00FFFF000000FFFF00FFFFFFFF00FFFFFFFFFFFFFFFF0000FFFFFFF9FFFFFF0000FFFFFFFF00FFFF00FFFFFFFF00FFFFFFFFFF
310
FFFF00FFFFFFFFFFF9FFFFFF0000FFFFFFFF00FFFF00FF00FFFF00FFFFFFFFFFFF00FFFFFFFFFFFFF9FFFFFFFF00FF00FFFF00FFFFF9F90000F9F9F9F9F9F9F900F9F9F9F9F9F9F9F9F9F9F9F900F9000000F9FFFF00FFFFFFFF00FFFFFFFFFFFF0000FFFFFFFFFFF9FFFFFF0000FFFFFFFF00FFFF00FFFFFFFF00FFFFFFFF
310
FFFFFFFF0000FFFFFFF9FFFFFF0000FFFFFFFF00FFFF000000FFFF00FFFFFFFFFFFFFFFFFFFF0000FFF9FF0000FF00FFFF000000FFFFFFFFFF00000000000000000000000000000000F900000000000000FFFFFFFFFFFFFFFFFFFFFFFFFFFFFFFFFFFFFFFFFFFFFFFFFFFFFFFFFFFFFFFFFFFFFFFFFFFFFFFFFFFFFFFFFFFF
310
FFFFFFFFFFFFFFFFFFFFFFFFFFFFFFFFFFFFFFFFFFFFFFFFFFFFFFFFFFFFFFFFFFFFFFFFFFFFFFFFFFFFFFFFFFFFFFFFFFFFFFFFFFFFFFFFFFFFFFFFFFFFFFFFFFFFFFFFFFFFFFFFFFFFFFFFFFFFFFFFFFFFFFFFFFFFFFFFFFFFFFFFFFFFFFFFFFFFFFFFFFFFFFFFFFFFFFFFFFFFFFFFFFFFFFFFFFFFFFFFFFFFFFFFFFFFFF
310
FFFFFFFFFFFFFFFFFFFFFFFFFFFFFFFFFFFFFFFFFFFFFFFFFFFFFFFFFFFFFFFFFFFFFFFFFFFFFFFFFFFFFFFFFFFFFFFFFFFFFFFFFFFFFFFFFFFFFFFFFFFFFFFFFFFFFFFFFFFFFFFFFFFFFFFFFFFFFFFFFFFFFFFFFFFFFFFFFFFFFFFFFFFFFFFFFFFFFFFFFFFFFFFFFFFFFFFFFFFFFFFFFFFFFFFFFFFFFFFFFFFFFFFFFFFFFF
310
FFFFFFFFFFFFFFFFFFFFFFFFFFFFFFFFFFFFFFFFFFFFFFFFFFFFFFFFFFFFFFFFFFFFFFFFFFFFFFFFFFFFFFFFFFFFFFFFFFFFFFFFFFFFFFFF
  0
BLOCK_RECORD
  5
168B
330
1
100
AcDbSymbolTableRecord
100
AcDbBlockTableRecord
  2
New Rudder
340
0
310
2800000020000000200000000100080000000000000400000000000000000000000000000000000000000000000080000080000000808000800000008000800080800000C0C0C000C0DCC000F0CAA6000020400000206000002080000020A0000020C0000020E00000400000004020000040400000406000004080000040A0
310
000040C0000040E00000600000006020000060400000606000006080000060A0000060C0000060E00000800000008020000080400000806000008080000080A0000080C0000080E00000A0000000A0200000A0400000A0600000A0800000A0A00000A0C00000A0E00000C0000000C0200000C0400000C0600000C0800000C0
310
A00000C0C00000C0E00000E0000000E0200000E0400000E0600000E0800000E0A00000E0C00000E0E00040000000400020004000400040006000400080004000A0004000C0004000E00040200000402020004020400040206000402080004020A0004020C0004020E000404000004040200040404000404060004040800040
310
40A0004040C0004040E00040600000406020004060400040606000406080004060A0004060C0004060E00040800000408020004080400040806000408080004080A0004080C0004080E00040A0000040A0200040A0400040A0600040A0800040A0A00040A0C00040A0E00040C0000040C0200040C0400040C0600040C08000
310
40C0A00040C0C00040C0E00040E0000040E0200040E0400040E0600040E0800040E0A00040E0C00040E0E00080000000800020008000400080006000800080008000A0008000C0008000E00080200000802020008020400080206000802080008020A0008020C0008020E00080400000804020008040400080406000804080
310
008040A0008040C0008040E00080600000806020008060400080606000806080008060A0008060C0008060E00080800000808020008080400080806000808080008080A0008080C0008080E00080A0000080A0200080A0400080A0600080A0800080A0A00080A0C00080A0E00080C0000080C0200080C0400080C0600080C0
310
800080C0A00080C0C00080C0E00080E0000080E0200080E0400080E0600080E0800080E0A00080E0C00080E0E000C0000000C0002000C0004000C0006000C0008000C000A000C000C000C000E000C0200000C0202000C0204000C0206000C0208000C020A000C020C000C020E000C0400000C0402000C0404000C0406000C0
310
408000C040A000C040C000C040E000C0600000C0602000C0604000C0606000C0608000C060A000C060C000C060E000C0800000C0802000C0804000C0806000C0808000C080A000C080C000C080E000C0A00000C0A02000C0A04000C0A06000C0A08000C0A0A000C0A0C000C0A0E000C0C00000C0C02000C0C04000C0C06000
310
C0C08000C0C0A000F0FBFF00A4A0A000808080000000FF0000FF000000FFFF00FF000000FF00FF00FFFF0000FFFFFF00FFFFFFFFFFFFFFFFFFFFFFFFFFFFFFFFFFFFFFFFFFFFFFFFFFFFFFFFFFFFFFFFFFFFFFFFFFFFFFFFFFFFFFFFFFFF000000FFFFFFFFFFFFFFFFFFFFFFFFFFFFFFFFFFFFFFFFFFFFFFFFFF00000000FF
310
FFFF00FFFFFFFFFFFFFFFFFFFFFFFFFFFFFFFFFFFFFFFFFFFFFFFF00FFFFFFFFFFFF00FFFFFFFFFFFFFFFFFFFFFFFFFFFFFFFFFFFFFFFFFFFFFFFF00FFFFFFFFFFFF00FFFFFFFFFFFFFFFFFFFFFFFFFFFFFFFFFFFFFFFFFFFFFFFF00FFFFFFFFFFFF00FFFFFFFFFFFFFFFFFFFFFFFFFFFFFFFFFFFFFFFFFFFFFFFF00FFFFFF
310
FFFFFFFF00FFFFFFFFFFFFFFFFFFFFFFFFFFFFFFFFFFFFFFFFFFFFFF00FFFFFFFFFFFFFF00FFFFFFFFFFFFFFFFFFFFFFFFFFFFFFFFFFFFFFFFFFFFFF00FFFFFFFFFFFFFF00FFFFFFFFFFFFFFFFFFFFFFFFFFFFFFFFFFFFFFFFFFFFFF00FFFFFFFFFFFFFF00FFFFFFFFFFFFFFFFFFFFFFFFFFFFFFFFFFFFFFFFFFFFFF00FFFF
310
FFFFFFFFFF00FFFFFFFFFFFFFFFFFFFFFFFFFFFFFFFFFFFFFFFFFFFFFF00FFFFFFFFFFFFFF00FFFFFFFFFFFFFFFFFFFFFFFFFFFFFFFFFFFFFFFFFFFFFF00FFFFFFFFFFFFFFFF00FFFFFFFFFFFFFFFFFFFFFFFFFFFFFFFFFFFFFFFFFFFF00FFFFFFFFFFFFFFFF00FFFFFFFFFFFFFFFFFFFFFFFFFFFFFFFFFFFFFFFFFFFF00FF
310
FFFFFFFFFFFFFF00FFFFFFFFFFFFFFFFFFFFFFFFFFFFFFFFFFFFFFFFFFFF00FFFFFFFFFFFFFFFF00FFFFFFFFFFFFFFFFFFFFFFFFFFFFFFFFFFFFFFFFFFFF00FFFFFFFFFFFFFFFF00FFFFFFFFFFFFFFFFFFFFFFFFFFFFFFFFFFFFFFFFFFFF00FFFFFFFFFFFFFFFF00FFFFFFFFFFFFFFFFFFFFFFFFFFFFFFFFFFFFFFFFFFFF00
310
FFFFFFFFFFFFFFFFFF00FFFFFFFFFFFFFFFFFFFFFFFFFFFFFFFFFFFFFFFFFF00FFFFFFFFFFFFFFFFFF00FFFFFFFFFFFFFFFFFFFFFFFFFFFFFFFFFFFFFFFFFF00FFFFFFFFFFFFFFFFFF00FFFFFFFFFFFFFFFFFFFFFFFFFFFFFFFFFFFFFFFFFF00FFFFFFFFFFFFFFFFFF00FFFFFFFFFFFFFFFFFFFFFFFFFFFFFFFFFFFFFFFFFF
310
00FFFFFFFFFFFFFFFFFF00FFFFFFFFFFFFFFFFFFFFFFFFFFFFFFFFFFFFFFFFFF00FFFFFFFFFFFFFFFFFF00FFFFFFFFFFFFFFFFFFFFFFFFFFFFFFFFFFFFFFFFFF00FFFFFFFFFFFFFFFFFFFF00FFFFFFFFFFFFFFFFFFFFFFFFFFFFFFFFFFFFFFFF00FFFFFFFFFFFFFFFFFFFF00FFFFFFFFFFFFFFFFFFFFFFFFFFFFFFFFFFFFFF
310
FF00FFFFFFFFFFFFFF00000000FFFFFFFFFFFFFFFFFFFFFFFFFFFFFFFFFFFFFFFF00FFFFFFFF00000000FFFFFFFFFFFFFFFFFFFFFFFFFFFFFFFFFFFFFFFFFFFFFF00FFFF000000FFFFFFFFFFFFFFFFFFFFFFFFFFFFFFFFFFFFFFFFFFFFFFFFFFFF000000FFFFFFFFFFFFFFFFFFFFFFFFFFFFFFFFFFFFFFFFFFFFFFFFFFFFFF
310
FFFF00FFFFFFFFFFFFFFFFFFFFFFFFFFFFFFFFFFFFFFFFFFFFFFFFFFFFFFFFFFFFFFFFFFFFFFFFFFFFFFFFFFFFFFFFFFFFFFFFFFFFFFFFFF
  0
BLOCK_RECORD
  5
1B7F
330
1
100
AcDbSymbolTableRecord
100
AcDbBlockTableRecord
  2
Rudder
340
0
310
2800000020000000200000000100080000000000000400000000000000000000000000000000000000000000000080000080000000808000800000008000800080800000C0C0C000C0DCC000F0CAA6000020400000206000002080000020A0000020C0000020E00000400000004020000040400000406000004080000040A0
310
000040C0000040E00000600000006020000060400000606000006080000060A0000060C0000060E00000800000008020000080400000806000008080000080A0000080C0000080E00000A0000000A0200000A0400000A0600000A0800000A0A00000A0C00000A0E00000C0000000C0200000C0400000C0600000C0800000C0
310
A00000C0C00000C0E00000E0000000E0200000E0400000E0600000E0800000E0A00000E0C00000E0E00040000000400020004000400040006000400080004000A0004000C0004000E00040200000402020004020400040206000402080004020A0004020C0004020E000404000004040200040404000404060004040800040
310
40A0004040C0004040E00040600000406020004060400040606000406080004060A0004060C0004060E00040800000408020004080400040806000408080004080A0004080C0004080E00040A0000040A0200040A0400040A0600040A0800040A0A00040A0C00040A0E00040C0000040C0200040C0400040C0600040C08000
310
40C0A00040C0C00040C0E00040E0000040E0200040E0400040E0600040E0800040E0A00040E0C00040E0E00080000000800020008000400080006000800080008000A0008000C0008000E00080200000802020008020400080206000802080008020A0008020C0008020E00080400000804020008040400080406000804080
310
008040A0008040C0008040E00080600000806020008060400080606000806080008060A0008060C0008060E00080800000808020008080400080806000808080008080A0008080C0008080E00080A0000080A0200080A0400080A0600080A0800080A0A00080A0C00080A0E00080C0000080C0200080C0400080C0600080C0
310
800080C0A00080C0C00080C0E00080E0000080E0200080E0400080E0600080E0800080E0A00080E0C00080E0E000C0000000C0002000C0004000C0006000C0008000C000A000C000C000C000E000C0200000C0202000C0204000C0206000C0208000C020A000C020C000C020E000C0400000C0402000C0404000C0406000C0
310
408000C040A000C040C000C040E000C0600000C0602000C0604000C0606000C0608000C060A000C060C000C060E000C0800000C0802000C0804000C0806000C0808000C080A000C080C000C080E000C0A00000C0A02000C0A04000C0A06000C0A08000C0A0A000C0A0C000C0A0E000C0C00000C0C02000C0C04000C0C06000
310
C0C08000C0C0A000F0FBFF00A4A0A000808080000000FF0000FF000000FFFF00FF000000FF00FF00FFFF0000FFFFFF00FFFFFFFFFFFFFFFFFFFFFFFFFFFFFFFFFFFFFFFFFFFFFFFFFFFFFFFFFFFFFFFFFFFFFFFFFFFFFFFFFFFFFFFFFFFFFFFFFFFCFFFFFFFFFFFFFFFFFFFFFFFFFFFFFFFFFFFFFFFFFFFFFFFFFFFFFFFFFF
310
FCFCFCFFFFFFFFFFFFFFFFFFFFFFFFFFFFFFFFFFFFFFFFFFFFFFFFFFFFFCFCFCFFFFFCFFFFFFFFFFFFFFFFFFFFFFFFFFFFFFFFFFFFFFFFFFFFFFFFFFFFFCFFFFFFFFFCFFFFFFFFFFFFFFFFFFFFFFFFFFFFFFFFFFFFFFFFFFFFFFFFFFFFFCFFFFFFFFFCFFFFFFFFFFFFFFFFFFFFFFFFFFFFFFFFFFFFFFFFFFFFFFFFFFFCFFFF
310
FFFFFFFFFCFFFFFFFFFFFFFFFFFFFFFFFFFFFFFFFFFFFFFFFFFFFFFFFFFCFFFFFFFFFFFFFCFFFFFFFFFFFFFFFFFFFFFFFFFFFFFFFFFFFFFFFFFFFFFFFFFCFFFFFFFFFFFFFCFFFFFFFFFFFFFFFFFFFFFFFFFFFFFFFFFFFFFFFFFFFFFFFFFCFFFFFFFFFFFFFCFFFFFFFFFFFFFFFFFFFFFFFFFFFFFFFFFFFFFFFFFFFFFFFFFCFF
310
FFFFFFFFFFFCFFFFFFFFFFFFFFFFFFFFFFFFFFFFFFFFFFFFFFFFFFFFFFFFFCFFFFFFFFFFFFFCFFFFFFFFFFFFFFFFFFFFFFFFFFFFFFFFFFFFFFFFFFFFFFFFFCFFFFFFFFFFFFFCFFFFFFFFFFFFFFFFFFFFFFFFFFFFFFFFFFFFFFFFFFFFFFFFFCFFFFFFFFFFFFFFFCFFFFFFFFFFFFFFFFFFFFFFFFFFFFFFFFFFFFFFFFFFFFFFFC
310
FFFFFFFFFFFFFFFCFFFFFFFFFFFFFFFFFFFFFFFFFFFFFFFFFFFFFFFFFFFFFFFCFFFFFFFFFFFFFFFCFFFFFFFFFFFFFFFFFFFFFFFFFFFFFFFFFFFFFFFFFFFFFFFCFFFFFFFFFFFFFFFCFFFFFFFFFFFFFFFFFFFFFFFFFFFFFFFFFFFFFFFFFFFFFFFCFFFFFFFFFFFFFFFCFFFFFFFFFFFFFFFFFFFFFFFFFFFFFFFFFFFFFFFFFFFFFF
310
FCFFFFFFFFFFFFFFFCFFFFFFFFFFFFFFFFFFFFFFFFFFFFFFFFFFFFFFFFFFFFFFFCFFFFFFFFFFFFFFFFFCFFFFFFFFFFFFFFFFFFFFFFFFFFFFFFFFFFFFFFFFFFFFFCFFFFFFFFFFFFFFFFFCFFFFFFFFFFFFFFFFFFFFFFFFFFFFFFFFFFFFFFFFFFFFFCFFFFFFFFFFFFFFFFFCFFFFFFFFFFFFFFFFFFFFFFFFFFFFFFFFFFFFFFFFFF
310
FFFCFFFFFFFFFFFFFFFFFCFFFFFFFFFFFFFFFFFFFFFFFFFFFFFFFFFFFFFFFFFFFFFCFFFFFFFFFFFFFCFCFFFFFFFFFFFFFFFFFFFFFFFFFFFFFFFFFFFFFFFFFFFFFFFCFFFFFFFCFCFCFFFFFFFFFFFFFFFFFFFFFFFFFFFFFFFFFFFFFFFFFFFFFFFFFFFCFFFFFCFCFFFFFFFFFFFFFFFFFFFFFFFFFFFFFFFFFFFFFFFFFFFFFFFFFF
310
FFFFFCFFFFFCFFFFFFFFFFFFFFFFFFFFFFFFFFFFFFFFFFFFFFFFFFFFFFFFFFFFFFFFFFFCFFFCFFFFFFFFFFFFFFFFFFFFFFFFFFFFFFFFFFFFFFFFFFFFFFFFFFFFFFFFFFFCFFFFFCFFFFFFFFFFFFFFFFFFFFFFFFFFFFFFFFFFFFFFFFFFFFFFFFFFFFFFFFFCFFFCFCFFFFFFFFFFFFFFFFFFFFFFFFFFFFFFFFFFFFFFFFFFFFFFFF
310
FFFFFFFFFCFCFFFFFFFFFFFFFFFFFFFFFFFFFFFFFFFFFFFFFFFFFFFFFFFFFFFFFFFFFFFFFFFFFFFFFFFFFFFFFFFFFFFFFFFFFFFFFFFFFFFF
  0
BLOCK_RECORD
  5
1C58
330
1
100
AcDbSymbolTableRecord
100
AcDbBlockTableRecord
  2
MOD 3 RUDDER
340
0
310
2800000020000000200000000100080000000000000400000000000000000000000000000000000000000000000080000080000000808000800000008000800080800000C0C0C000C0DCC000F0CAA6000020400000206000002080000020A0000020C0000020E00000400000004020000040400000406000004080000040A0
310
000040C0000040E00000600000006020000060400000606000006080000060A0000060C0000060E00000800000008020000080400000806000008080000080A0000080C0000080E00000A0000000A0200000A0400000A0600000A0800000A0A00000A0C00000A0E00000C0000000C0200000C0400000C0600000C0800000C0
310
A00000C0C00000C0E00000E0000000E0200000E0400000E0600000E0800000E0A00000E0C00000E0E00040000000400020004000400040006000400080004000A0004000C0004000E00040200000402020004020400040206000402080004020A0004020C0004020E000404000004040200040404000404060004040800040
310
40A0004040C0004040E00040600000406020004060400040606000406080004060A0004060C0004060E00040800000408020004080400040806000408080004080A0004080C0004080E00040A0000040A0200040A0400040A0600040A0800040A0A00040A0C00040A0E00040C0000040C0200040C0400040C0600040C08000
310
40C0A00040C0C00040C0E00040E0000040E0200040E0400040E0600040E0800040E0A00040E0C00040E0E00080000000800020008000400080006000800080008000A0008000C0008000E00080200000802020008020400080206000802080008020A0008020C0008020E00080400000804020008040400080406000804080
310
008040A0008040C0008040E00080600000806020008060400080606000806080008060A0008060C0008060E00080800000808020008080400080806000808080008080A0008080C0008080E00080A0000080A0200080A0400080A0600080A0800080A0A00080A0C00080A0E00080C0000080C0200080C0400080C0600080C0
310
800080C0A00080C0C00080C0E00080E0000080E0200080E0400080E0600080E0800080E0A00080E0C00080E0E000C0000000C0002000C0004000C0006000C0008000C000A000C000C000C000E000C0200000C0202000C0204000C0206000C0208000C020A000C020C000C020E000C0400000C0402000C0404000C0406000C0
310
408000C040A000C040C000C040E000C0600000C0602000C0604000C0606000C0608000C060A000C060C000C060E000C0800000C0802000C0804000C0806000C0808000C080A000C080C000C080E000C0A00000C0A02000C0A04000C0A06000C0A08000C0A0A000C0A0C000C0A0E000C0C00000C0C02000C0C04000C0C06000
310
C0C08000C0C0A000F0FBFF00A4A0A000808080000000FF0000FF000000FFFF00FF000000FF00FF00FFFF0000FFFFFF00FFFFFFFFFFFFFFFFFFFFFFFFFFFFFFFFFFFFFFFFFFFFFFFFFFFFFFFFFFFFFFFFFFFFFFFFFFFFFFFFFFFFFFFFFFFFFF0000000000FFFFFFFFFFFFFFFFFFFFFFFFFFFFFFFFFFFFFFFFFFFFFFFFFFFFFF
310
00FFFFFFFF00FFFFFFFFFFFFFFFFFFFFFFFFFFFFFFFFFFFFFFFFFFFFFFFFFFFF00FFFFFFFF00FFFFFFFFFFFFFFFFFFFFFFFFFFFFFFFFFFFFFFFFFFFFFFFFFFFF00FFFFFFFF00FFFFFFFFFFFFFFFFFFFFFFFFFFFFFFFFFFFFFFFFFFFFFFFFFF00FFFFFFFFFF00FFFFFFFFFFFFFFFFFFFFFFFFFFFFFFFFFFFFFFFFFFFFFFFFFF
310
00FFFFFFFFFF00FFFFFFFFFFFFFFFFFFFFFFFFFFFFFFFFFFFFFFFFFFFFFFFFFF00FFFFFFFFFF00FFFFFFFFFFFFFFFFFFFFFFFFFFFFFFFFFFFFFFFFFFFFFFFFFF00FFFFFFFFFF00FFFFFFFFFFFFFFFFFFFFFFFFFFFFFFFFFFFFFFFFFFFFFFFFFF00FFFFFFFFFF00FFFFFFFFFFFFFFFFFFFFFFFFFFFFFFFFFFFFFFFFFFFFFFFF
310
FF00FFFFFFFFFF00FFFFFFFFFFFFFFFFFFFFFFFFFFFFFFFFFFFFFFFFFFFFFFFF00FFFFFFFFFFFF00FFFFFFFFFFFFFFFFFFFFFFFFFFFFFFFFFFFFFFFFFFFFFFFF00FFFFFFFFFFFF00FFFFFFFFFFFFFFFFFFFFFFFFFFFFFFFFFFFFFFFFFFFFFFFF00FFFFFFFFFFFF00FFFFFFFFFFFFFFFFFFFFFFFFFFFFFFFFFFFFFFFFFFFFFF
310
FF00FFFFFFFFFFFF00FFFFFFFFFFFFFFFFFFFFFFFFFFFFFFFFFFFFFFFFFFFFFFFF00FFFFFFFFFFFF00FFFFFFFFFFFFFFFFFFFFFFFFFFFFFFFFFFFFFFFFFFFFFFFF00FFFFFFFFFFFF00FFFFFFFFFFFFFFFFFFFFFFFFFFFFFFFFFFFFFFFFFFFFFFFF00FFFFF9FFFFFF00FFFFFFFFFFFFFFFFFFFFFFFFFFFFFFFFFFFFFFFFFFFF
310
FF00FFFFFFFFF9FFFF00FFFFFFFFFFFFFFFFFFFFFFFFFFFFFFFFFFFFFFFFFFFFFF00FFFFFFFFF9FFFF00FFFFFFFFFFFFFFFFFFFFFFFFFFFFFFFFFFFFFFFFFFFFFF00FFFFFFFFF9FFFF00FFFFFFFFFFFFFFFFFFFFFFFFFFFFFFFFFFFFFFFFFFFFFF00FFFFFFFFF9FFFF00FFFFFFFFFFFFFFFFFFFFFFFFFFFFFFFFFFFFFFFFFF
310
FFFF00FFFFFFFFF9FFFF00FFFFFFFFFFFFFFFFFFFFFFFFFFFFFFFFFFFFFFFFFFFFFF00FFFFFFFFF9FFFF00FFFFFFFFFFFFFFFFFFFFFFFFFFFFFFFFFFFFFFFFFFFF00FFFFFFFFFF000000FFFFFFFFFFFFFFFFFFFFFFFFFFFFFFFFFFFFFFFFFFFFFF00FFFF000000F9FFFFFFFFFFFFFFFFFFFFFFFFFFFFFFFFFFFFFFFFFFFFFF
310
FFFF00000000FFFFF9FFFFFFFFFFFFFFFFFFFFFFFFFFFFFFFFFFFFFFFFFFFFFFFFFF00FFFFFFFFFFF9FFFFFFFFFFFFFFFFFFFFFFFFFFFFFFFFFFFFFFFFFFFFFFFFFFFFFFFFFFFFFFF9FFFFFFFFFFFFFFFFFFFFFFFFFFFFFFFFFFFFFFFFFFFFFFFFFFFFFFFFFFFFFFF9FFFFFFFFFFFFFFFFFFFFFFFFFFFFFFFFFFFFFFFFFFFF
310
FFFFFFFFFFFFFFFFFFF9FFFFFFFFFFFFFFFFFFFFFFFFFFFFFFFFFFFFFFFFFFFFFFFFFFFFFFFFFFFFFFFFFFFFFFFFFFFFFFFFFFFFFFFFFFFF
  0
BLOCK_RECORD
  5
3197
330
1
100
AcDbSymbolTableRecord
100
AcDbBlockTableRecord
  2
2.5gm Servo Top
340
0
310
2800000020000000200000000100080000000000000400000000000000000000000000000000000000000000000080000080000000808000800000008000800080800000C0C0C000C0DCC000F0CAA6000020400000206000002080000020A0000020C0000020E00000400000004020000040400000406000004080000040A0
310
000040C0000040E00000600000006020000060400000606000006080000060A0000060C0000060E00000800000008020000080400000806000008080000080A0000080C0000080E00000A0000000A0200000A0400000A0600000A0800000A0A00000A0C00000A0E00000C0000000C0200000C0400000C0600000C0800000C0
310
A00000C0C00000C0E00000E0000000E0200000E0400000E0600000E0800000E0A00000E0C00000E0E00040000000400020004000400040006000400080004000A0004000C0004000E00040200000402020004020400040206000402080004020A0004020C0004020E000404000004040200040404000404060004040800040
310
40A0004040C0004040E00040600000406020004060400040606000406080004060A0004060C0004060E00040800000408020004080400040806000408080004080A0004080C0004080E00040A0000040A0200040A0400040A0600040A0800040A0A00040A0C00040A0E00040C0000040C0200040C0400040C0600040C08000
310
40C0A00040C0C00040C0E00040E0000040E0200040E0400040E0600040E0800040E0A00040E0C00040E0E00080000000800020008000400080006000800080008000A0008000C0008000E00080200000802020008020400080206000802080008020A0008020C0008020E00080400000804020008040400080406000804080
310
008040A0008040C0008040E00080600000806020008060400080606000806080008060A0008060C0008060E00080800000808020008080400080806000808080008080A0008080C0008080E00080A0000080A0200080A0400080A0600080A0800080A0A00080A0C00080A0E00080C0000080C0200080C0400080C0600080C0
310
800080C0A00080C0C00080C0E00080E0000080E0200080E0400080E0600080E0800080E0A00080E0C00080E0E000C0000000C0002000C0004000C0006000C0008000C000A000C000C000C000E000C0200000C0202000C0204000C0206000C0208000C020A000C020C000C020E000C0400000C0402000C0404000C0406000C0
310
408000C040A000C040C000C040E000C0600000C0602000C0604000C0606000C0608000C060A000C060C000C060E000C0800000C0802000C0804000C0806000C0808000C080A000C080C000C080E000C0A00000C0A02000C0A04000C0A06000C0A08000C0A0A000C0A0C000C0A0E000C0C00000C0C02000C0C04000C0C06000
310
C0C08000C0C0A000F0FBFF00A4A0A000808080000000FF0000FF000000FFFF00FF000000FF00FF00FFFF0000FFFFFF00FFFFFFFFFFFFFFFFFFFFFFFFFFFFFFFFFFFFFFFFFFFFFFFFFFFFFFFFFFFFFFFFFFFFFFFFFFFFFFFFFFFFFFFFFFFFFFFFFFFFFFFFFFFFFFFFFFFFFFFFFFFFFFFFFFFFFFFFFFFFFFFFFFFFFFFFFFFFFF
310
FFFFFFFFFFFFFFFFFFFFFFFFFFFFFFFFFFFFFFFFFFFFFFFFFFFFFFFFFFFFFFFFFFFFFFFFFFFFFFFFFFFFFFFFFFFFFFFFFFFFFFFFFFFFFFFFFFFFFFFFFFFFFFFFFFFFFFFFFFFFFFFFFFFFFFFFFFFFFFFFFFFFFFFFFFFFFFFFFFFFFFFFFFFFFFFFFFFFFFFFFFFFFFFFFFFFFFFFFFFFFFFFFFFFFFFFFFFFFFFFFFFFFFFFFFFFFF
310
FFFFFFFFFFFFFFFFFFFFFFFFFFFFFFFFFFFFFFFFFFFFFFFFFFFFFFFFFFFFFFFFFFFFFFFFFFFFFFFFFFFFFFFFFFFFFFFFFFFFFFFFFFFFFFFFFFFFFFFFFFFFFFFFFFFFFFFFFFFFFFFFFFFFFFFFFFFFFFFFFFFFFFFFFFFFFFFFFFFFFFFFFFFFFFFFFFFFFFFFFFFFFFFFFFFFFFFFFFFFFFFFFFFFFFFFFFFFFFFFFFFFFFFFFFFFFF
310
FFFFFFFFFFFFFFFFFFFFFFFFFFFFFFFFFFFFFFFFFFFFFFFFFFFFFFFFFFFFFFFFFFFFFFFFFFFFFFF9FFFFFFFFFFFFFFFFFFFFFFFFFFFFFF000000000000000000000000000000000000000000000000FFFFFFFFFF000000FFFF00FFFFFFFFFFFFFFFFFFFFFF00FFF9FFFF00FF00FFFF000000FFFF00FFFFFFFF00FFFFFFFFFF
310
FFFFFF000000FFFFF9FFFF00FF00FFFFFFFF00FFFF00FF00FFFF00FFFFFFFFFFFFFFFF00FF00FFFFF9FFFFFF0000FF00FFFF00FFFFF9F90000F9F9F9F9F9F9F9F9F9F90000F9F9F9F9F9F9F900F9F9000000F9FFFF00FFFFFFFF00FFFFFFFFFFFFFFFF000000FFFFF9FFFF00FF00FFFFFFFF00FFFF000000FFFF00FFFFFFFF
310
FFFFFFFFFFFF00FFFFF9FFFF00FF00FFFF000000FFFFFFFFFF000000000000000000000000000000000000000000000000FFFFFFFFFFFFFFFFFFFFFFFFFFFFFFFFFFFFFFFFFFFFFFFFF9FFFFFFFFFFFFFFFFFFFFFFFFFFFFFFFFFFFFFFFFFFFFFFFFFFFFFFFFFFFFFFF9FFFFFFFFFFFFFFFFFFFFFFFFFFFFFFFFFFFFFFFFFF
310
FFFFFFFFFFFFFFFFFFFFFFFFFFFFFFFFFFFFFFFFFFFFFFFFFFFFFFFFFFFFFFFFFFFFFFFFFFFFFFFFFFFFFFFFFFFFFFFFFFFFFFFFFFFFFFFFFFFFFFFFFFFFFFFFFFFFFFFFFFFFFFFFFFFFFFFFFFFFFFFFFFFFFFFFFFFFFFFFFFFFFFFFFFFFFFFFFFFFFFFFFFFFFFFFFFFFFFFFFFFFFFFFFFFFFFFFFFFFFFFFFFFFFFFFFFFFFF
310
FFFFFFFFFFFFFFFFFFFFFFFFFFFFFFFFFFFFFFFFFFFFFFFFFFFFFFFFFFFFFFFFFFFFFFFFFFFFFFFFFFFFFFFFFFFFFFFFFFFFFFFFFFFFFFFFFFFFFFFFFFFFFFFFFFFFFFFFFFFFFFFFFFFFFFFFFFFFFFFFFFFFFFFFFFFFFFFFFFFFFFFFFFFFFFFFFFFFFFFFFFFFFFFFFFFFFFFFFFFFFFFFFFFFFFFFFFFFFFFFFFFFFFFFFFFFFF
310
FFFFFFFFFFFFFFFFFFFFFFFFFFFFFFFFFFFFFFFFFFFFFFFFFFFFFFFFFFFFFFFFFFFFFFFFFFFFFFFFFFFFFFFFFFFFFFFFFFFFFFFFFFFFFFFF
102
{BLKREFS
331
31AC
102
}
  0
BLOCK_RECORD
  5
3A6D
330
1
100
AcDbSymbolTableRecord
100
AcDbBlockTableRecord
  2
*D11
340
0
  0
BLOCK_RECORD
  5
3AE7
330
1
100
AcDbSymbolTableRecord
100
AcDbBlockTableRecord
  2
*D20
340
0
  0
BLOCK_RECORD
  5
3AF4
330
1
100
AcDbSymbolTableRecord
100
AcDbBlockTableRecord
  2
*D21
340
0
  0
BLOCK_RECORD
  5
3B01
330
1
100
AcDbSymbolTableRecord
100
AcDbBlockTableRecord
  2
*D22
340
0
  0
BLOCK_RECORD
  5
3B0E
330
1
100
AcDbSymbolTableRecord
100
AcDbBlockTableRecord
  2
*D23
340
0
  0
BLOCK_RECORD
  5
3B1B
330
1
100
AcDbSymbolTableRecord
100
AcDbBlockTableRecord
  2
*D24
340
0
  0
BLOCK_RECORD
  5
3B28
330
1
100
AcDbSymbolTableRecord
100
AcDbBlockTableRecord
  2
*D25
340
0
  0
BLOCK_RECORD
  5
3B35
330
1
100
AcDbSymbolTableRecord
100
AcDbBlockTableRecord
  2
*D26
340
0
  0
ENDTAB
  0
ENDSEC
  0
SECTION
  2
BLOCKS
  0
BLOCK
  5
3F
330
19
100
AcDbEntity
  8
0
100
AcDbBlockBegin
  2
*MODEL_SPACE
 70
     0
 10
0.0
 20
0.0
 30
0.0
  3
*MODEL_SPACE
  1
*MODEL_SPACE
  0
ENDBLK
  5
40
330
19
100
AcDbEntity
  8
0
100
AcDbBlockEnd
  0
BLOCK
  5
3D
330
16
100
AcDbEntity
 67
     1
  8
0
100
AcDbBlockBegin
  2
*PAPER_SPACE
 70
     0
 10
0.0
 20
0.0
 30
0.0
  3
*PAPER_SPACE
  1
*PAPER_SPACE
  0
ENDBLK
  5
3E
330
16
100
AcDbEntity
 67
     1
  8
0
100
AcDbBlockEnd
  0
BLOCK
  5
41
330
1C
100
AcDbEntity
  8
0
100
AcDbBlockBegin
  2
REG
 70
     2
 10
0.0
 20
0.0
 30
0.0
  3
REG
  1
REG
  0
ATTDEF
  5
42
330
1C
100
AcDbEntity
  8
TXT34
100
AcDbText
 10
784.0
 20
56.0
 30
0.0
 40
3.0
  1

100
AcDbAttributeDefinition
  3
DO NOT ALTER
  2
R01
 70
     1
  0
ATTDEF
  5
43
330
1C
100
AcDbEntity
  8
TXT34
100
AcDbText
 10
744.7261904761905
 20
48.0
 30
0.0
 40
2.5
  1

 72
     1
 11
748.0
 21
48.0
 31
0.0
100
AcDbAttributeDefinition
  3
DO NOT ALTER
  2
R02
 70
     0
  0
ATTDEF
  5
44
330
1C
100
AcDbEntity
  8
TXT34
100
AcDbText
 10
784.0
 20
50.85714285714286
 30
0.0
 40
3.0
  1

100
AcDbAttributeDefinition
  3
DO NOT ALTER
  2
R03
 70
     1
  0
ATTDEF
  5
45
330
1C
100
AcDbEntity
  8
TXT34
100
AcDbText
 10
735.0
 20
11.0
 30
0.0
 40
3.0
  1

100
AcDbAttributeDefinition
  3
DRAWN BY
  2
R05
 70
     0
  0
ATTDEF
  5
46
330
1C
100
AcDbEntity
  8
TXT34
100
AcDbText
 10
376.0
 20
25.0
 30
0.0
 40
3.0
  1

100
AcDbAttributeDefinition
  3
FIRST USED ON
  2
R06
 70
     0
  0
ATTDEF
  5
47
330
1C
100
AcDbEntity
  8
TXT52
100
AcDbText
 10
653.0
 20
29.0
 30
0.0
 40
4.0
  1

100
AcDbAttributeDefinition
  3
FIRE RETARDENT
  2
R07
 70
     0
  0
ATTDEF
  5
48
330
1C
100
AcDbEntity
  8
TXT34
100
AcDbText
 10
784.0
 20
45.71428571428572
 30
0.0
 40
3.0
  1

100
AcDbAttributeDefinition
  3
DO NOT ALTER
  2
R08
 70
     1
  0
ATTDEF
  5
49
330
1C
100
AcDbEntity
  8
TXT34
100
AcDbText
 10
354.0
 20
14.0
 30
0.0
 40
3.0
  1

100
AcDbAttributeDefinition
  3
DATE
  2
R10
 70
     0
  0
ATTDEF
  5
4A
330
1C
100
AcDbEntity
  8
TXT34
100
AcDbText
 10
735.0
 20
20.0
 30
0.0
 40
3.0
  1

100
AcDbAttributeDefinition
  3
SCALE
  2
R11
 70
     0
  0
ATTDEF
  5
4B
330
1C
100
AcDbEntity
  8
TXT52
100
AcDbText
 10
675.0
 20
29.0
 30
0.0
 40
4.0
  1

100
AcDbAttributeDefinition
  3
TAIL No.
  2
R12
 70
     0
  0
ATTDEF
  5
4C
330
1C
100
AcDbEntity
  8
TXT52
100
AcDbText
 10
43.0
 20
553.0
 30
0.0
 40
4.0
  1

100
AcDbAttributeDefinition
  3
PART No.
  2
R13
 70
     0
  0
ATTDEF
  5
4D
330
1C
100
AcDbEntity
  8
TXT52
100
AcDbText
 10
645.0
 20
29.0
 30
0.0
 40
4.0
  1

100
AcDbAttributeDefinition
  3
DO NOT ALTER
  2
R14
 70
     0
  0
ATTDEF
  5
4E
330
1C
100
AcDbEntity
  8
TXT34
100
AcDbText
 10
784.0
 20
40.57142857142858
 30
0.0
 40
3.0
  1

100
AcDbAttributeDefinition
  3
DO NOT ALTER
  2
R15
 70
     1
  0
ATTDEF
  5
4F
330
1C
100
AcDbEntity
  8
TXT34
100
AcDbText
 10
757.0
 20
28.0
 30
0.0
 40
2.5
  1

100
AcDbAttributeDefinition
  3
CAD REF.
  2
R16
 70
     0
  0
ATTDEF
  5
50
330
1C
100
AcDbEntity
  8
TXT52
100
AcDbText
 10
622.0
 20
39.0
 30
0.0
 40
4.0
  1

100
AcDbAttributeDefinition
  3
TITLE
  2
R17
 70
     0
  0
ATTDEF
  5
51
330
1C
100
AcDbEntity
  8
TXT34
100
AcDbText
 10
639.0
 20
20.0
 30
0.0
 40
3.0
  1

100
AcDbAttributeDefinition
  3
MATERIAL
  2
R18
 70
     0
  0
ATTDEF
  5
52
330
1C
100
AcDbEntity
  8
TXT34
100
AcDbText
 10
639.0
 20
12.0
 30
0.0
 40
3.0
  1

100
AcDbAttributeDefinition
  3
FINISH
  2
R19
 70
     0
  0
ATTDEF
  5
53
330
1C
100
AcDbEntity
  8
TXT34
100
AcDbText
 10
784.0
 20
35.42857142857144
 30
0.0
 40
3.0
  1

100
AcDbAttributeDefinition
  3
DO NOT ALTER
  2
R20
 70
     1
  0
ENDBLK
  5
54
330
1C
100
AcDbEntity
  8
0
100
AcDbBlockEnd
  0
BLOCK
  5
55
330
1D
100
AcDbEntity
  8
0
100
AcDbBlockBegin
  2
MOD
 70
     2
 10
0.0
 20
0.0
 30
0.0
  3
MOD
  1
MOD
  0
ATTDEF
  5
56
330
1D
100
AcDbEntity
  8
TXT52
100
AcDbText
 10
-141.0720483097206
 20
0.9077631772310468
 30
0.0
 40
3.0
  1

100
AcDbAttributeDefinition
  3

  2
M01
 70
     0
  0
ATTDEF
  5
57
330
1D
100
AcDbEntity
  8
TXT52
100
AcDbText
 10
-150.193170360012
 20
0.9077631772310468
 30
0.0
 40
3.0
  1

 72
     1
 11
-146.0503132171548
 21
0.9077631772310468
 31
0.0
100
AcDbAttributeDefinition
  3

  2
M02
 70
     0
  0
ATTDEF
  5
58
330
1D
100
AcDbEntity
  8
TXT52
100
AcDbText
 10
-110.3441373293508
 20
0.9077631772310468
 30
0.0
 40
3.0
  1

100
AcDbAttributeDefinition
  3

  2
M03
 70
     0
  0
ATTDEF
  5
59
330
1D
100
AcDbEntity
  8
TXT52
100
AcDbText
 10
-28.55460516003177
 20
0.9077631772310468
 30
0.0
 40
3.0
  1

 72
     1
 11
-24.3403194457461
 21
0.9077631772310468
 31
0.0
100
AcDbAttributeDefinition
  3

  2
M04
 70
     0
  0
ATTDEF
  5
5A
330
1D
100
AcDbEntity
  8
TXT52
100
AcDbText
 10
-9.5771890305964
 20
0.9077631772310468
 30
0.0
 40
3.0
  1

100
AcDbAttributeDefinition
  3

  2
M05
 70
     0
  0
ATTDEF
  5
5B
330
1D
100
AcDbEntity
  8
TXT52
100
AcDbText
 10
-110.0008087150451
 20
-11.45263726770778
 30
0.0
 40
3.0
  1

100
AcDbAttributeDefinition
  3

  2
M06
 70
     1
  0
ENDBLK
  5
5C
330
1D
100
AcDbEntity
  8
0
100
AcDbBlockEnd
  0
BLOCK
  5
EE3
330
EE2
100
AcDbEntity
  8
0
100
AcDbBlockBegin
  2
9gm SERVO TOP
 70
     0
 10
0.0
 20
0.0
 30
0.0
  3
9gm SERVO TOP
  1
9gm SERVO TOP
  0
LINE
  5
F25
330
EE2
100
AcDbEntity
  8
OUT57
100
AcDbLine
 10
-17.00000000000006
 20
6.000000000000057
 30
0.0
 11
6.0
 21
6.000000000000057
 31
0.0
  0
LINE
  5
F26
330
EE2
100
AcDbEntity
  8
OUT57
100
AcDbLine
 10
-17.00000000000006
 20
-5.999999999999972
 30
0.0
 11
6.0
 21
-5.999999999999943
 31
0.0
  0
LINE
  5
F27
330
EE2
100
AcDbEntity
  8
OUT57
100
AcDbLine
 10
6.0
 20
6.000000000000057
 30
0.0
 11
6.0
 21
-5.999999999999943
 31
0.0
  0
LINE
  5
F28
330
EE2
100
AcDbEntity
  8
OUT57
100
AcDbLine
 10
-17.0
 20
6.000000000000057
 30
0.0
 11
-17.0
 21
-5.999999999999943
 31
0.0
  0
LINE
  5
F29
330
EE2
100
AcDbEntity
  8
OUT57
100
AcDbLine
 10
11.0
 20
6.000000000000057
 30
0.0
 11
11.0
 21
-5.999999999999943
 31
0.0
  0
LINE
  5
F2A
330
EE2
100
AcDbEntity
  8
CTR34
100
AcDbLine
 10
-22.0
 20
0.0000000000001137
 30
0.0
 11
11.0
 21
0.0000000000000568
 31
0.0
  0
ARC
  5
F2B
330
EE2
100
AcDbEntity
  8
OUT57
100
AcDbCircle
 10
0.0
 20
0.0
 30
0.0
 40
6.0
100
AcDbArc
 50
208.9550243718592
 51
151.0449756281408
  0
LINE
  5
F2C
330
EE2
100
AcDbEntity
  8
CTR34
100
AcDbLine
 10
0.0
 20
6.0
 30
0.0
 11
0.0
 21
-6.0
 31
0.0
  0
LINE
  5
F2D
330
EE2
100
AcDbEntity
  8
OUT57
100
AcDbLine
 10
-17.00000000000006
 20
6.000000000000085
 30
0.0
 11
-22.0
 21
6.000000000000085
 31
0.0
  0
LINE
  5
F2E
330
EE2
100
AcDbEntity
  8
OUT57
100
AcDbLine
 10
-22.00000000000006
 20
-5.999999999999886
 30
0.0
 11
-17.00000000000006
 21
-5.999999999999915
 31
0.0
  0
LINE
  5
F2F
330
EE2
100
AcDbEntity
  8
OUT57
100
AcDbLine
 10
6.0
 20
-5.999999999999943
 30
0.0
 11
11.0
 21
-5.999999999999943
 31
0.0
  0
LINE
  5
F30
330
EE2
100
AcDbEntity
  8
OUT57
100
AcDbLine
 10
11.0
 20
6.000000000000057
 30
0.0
 11
6.0
 21
6.000000000000057
 31
0.0
  0
CIRCLE
  5
F31
330
EE2
100
AcDbEntity
  8
OUT57
100
AcDbCircle
 10
-20.0
 20
0.0000000000001137
 30
0.0
 40
1.0
  0
CIRCLE
  5
F32
330
EE2
100
AcDbEntity
  8
OUT57
100
AcDbCircle
 10
9.0
 20
0.0000000000000568
 30
0.0
 40
1.0
  0
ARC
  5
F33
330
EE2
100
AcDbEntity
  8
OUT57
100
AcDbCircle
 10
-6.0
 20
0.0
 30
0.0
 40
3.0
100
AcDbArc
 50
75.52248781407015
 51
284.4775121859299
  0
LINE
  5
F34
330
EE2
100
AcDbEntity
  8
OUT57
100
AcDbLine
 10
-22.0
 20
6.000000000000085
 30
0.0
 11
-22.00000000000006
 21
-5.999999999999886
 31
0.0
  0
ENDBLK
  5
EE4
330
EE2
100
AcDbEntity
  8
0
100
AcDbBlockEnd
  0
BLOCK
  5
F4D
330
F4C
100
AcDbEntity
  8
0
100
AcDbBlockBegin
  2
5gm SERVO TOP
 70
     0
 10
0.0
 20
0.0
 30
0.0
  3
5gm SERVO TOP
  1
5gm SERVO TOP
  0
LINE
  5
F4F
330
F4C
100
AcDbEntity
  8
OUT57
100
AcDbLine
 10
-15.50000000000011
 20
5.499999999999943
 30
0.0
 11
5.499999999999943
 21
5.499999999999972
 31
0.0
  0
LINE
  5
F50
330
F4C
100
AcDbEntity
  8
OUT57
100
AcDbLine
 10
-15.5
 20
-5.5
 30
0.0
 11
5.500000000000114
 21
-5.5
 31
0.0
  0
LINE
  5
F51
330
F4C
100
AcDbEntity
  8
OUT57
100
AcDbLine
 10
5.5
 20
5.499999999999972
 30
0.0
 11
5.500000000000057
 21
-5.5
 31
0.0
  0
LINE
  5
F52
330
F4C
100
AcDbEntity
  8
OUT57
100
AcDbLine
 10
10.5
 20
4.000000000000057
 30
0.0
 11
10.5
 21
-3.999999999999972
 31
0.0
  0
LINE
  5
F53
330
F4C
100
AcDbEntity
  8
OUT57
100
AcDbLine
 10
-15.5
 20
5.499999999999972
 30
0.0
 11
-15.49999999999994
 21
-5.5
 31
0.0
  0
LINE
  5
F54
330
F4C
100
AcDbEntity
  8
OUT57
100
AcDbLine
 10
-20.50000000000006
 20
3.999999999999972
 30
0.0
 11
-20.5
 21
-4.0
 31
0.0
  0
LINE
  5
F55
330
F4C
100
AcDbEntity
  8
CTR34
100
AcDbLine
 10
-20.5
 20
-0.0000000000000284
 30
0.0
 11
10.5
 21
0.0000000000000284
 31
0.0
  0
ARC
  5
F56
330
F4C
100
AcDbEntity
  8
OUT57
100
AcDbCircle
 10
0.0
 20
-0.0000000000000568
 30
0.0
 40
5.499999999999972
100
AcDbArc
 50
204.6199773286569
 51
155.3800226713418
  0
LINE
  5
F57
330
F4C
100
AcDbEntity
  8
CTR34
100
AcDbLine
 10
0.0
 20
-5.5
 30
0.0
 11
0.0
 21
5.499999999999915
 31
0.0
  0
ARC
  5
F58
330
F4C
100
AcDbEntity
  8
OUT57
100
AcDbCircle
 10
-6.0
 20
-0.0000000000000284
 30
0.0
 40
2.5
100
AcDbArc
 50
66.42182152179649
 51
293.5781784782006
  0
CIRCLE
  5
F59
330
F4C
100
AcDbEntity
  8
OUT57
100
AcDbCircle
 10
-18.5
 20
-0.0000000000000284
 30
0.0
 40
1.0
  0
CIRCLE
  5
F5A
330
F4C
100
AcDbEntity
  8
OUT57
100
AcDbCircle
 10
8.5
 20
0.0000000000001137
 30
0.0
 40
1.0
  0
LINE
  5
F5B
330
F4C
100
AcDbEntity
  8
OUT57
100
AcDbLine
 10
-15.5
 20
5.499999999999972
 30
0.0
 11
-20.5
 21
3.999999999999972
 31
0.0
  0
LINE
  5
F5C
330
F4C
100
AcDbEntity
  8
OUT57
100
AcDbLine
 10
-20.49999999999994
 20
-4.000000000000028
 30
0.0
 11
-15.49999999999994
 21
-5.5
 31
0.0
  0
LINE
  5
F5D
330
F4C
100
AcDbEntity
  8
OUT57
100
AcDbLine
 10
5.500000000000057
 20
-5.500000000000028
 30
0.0
 11
10.5
 21
-3.999999999999972
 31
0.0
  0
LINE
  5
F5E
330
F4C
100
AcDbEntity
  8
OUT57
100
AcDbLine
 10
10.5
 20
4.000000000000028
 30
0.0
 11
5.5
 21
5.499999999999943
 31
0.0
  0
ENDBLK
  5
F4E
330
F4C
100
AcDbEntity
  8
0
100
AcDbBlockEnd
  0
BLOCK
  5
168C
330
168B
100
AcDbEntity
  8
0
100
AcDbBlockBegin
  2
New Rudder
 70
     0
 10
0.0
 20
0.0
 30
0.0
  3
New Rudder
  1
New Rudder
  0
POLYLINE
  5
1A93
330
168B
100
AcDbEntity
  8
OUT57
100
AcDb2dPolyline
 66
     1
 10
0.0
 20
0.0
 30
0.0
  0
VERTEX
  5
1A94
330
1A93
100
AcDbEntity
  8
OUT57
100
AcDbVertex
100
AcDb2dVertex
 10
0.0
 20
0.0
 30
0.0
  0
VERTEX
  5
1A95
330
1A93
100
AcDbEntity
  8
OUT57
100
AcDbVertex
100
AcDb2dVertex
 10
2.884218535291236
 20
-1.537908128777929
 30
0.0
 42
0.0056943648603696
  0
VERTEX
  5
1A96
330
1A93
100
AcDbEntity
  8
OUT57
100
AcDbVertex
100
AcDb2dVertex
 10
2.894327953594846
 20
-1.543151640498934
 30
0.0
  0
VERTEX
  5
1A97
330
1A93
100
AcDbEntity
  8
OUT57
100
AcDbVertex
100
AcDb2dVertex
 10
5.729860003777759
 20
-2.973132391215529
 30
0.0
 42
0.0058050048385029
  0
VERTEX
  5
1A98
330
1A93
100
AcDbEntity
  8
OUT57
100
AcDbVertex
100
AcDb2dVertex
 10
5.740286031759695
 20
-2.978239364995943
 30
0.0
  0
VERTEX
  5
1A99
330
1A93
100
AcDbEntity
  8
OUT57
100
AcDbVertex
100
AcDb2dVertex
 10
8.333941367264963
 20
-4.211560275416559
 30
0.0
 42
0.00558900104924
  0
VERTEX
  5
1A9A
330
1A93
100
AcDbEntity
  8
OUT57
100
AcDbVertex
100
AcDb2dVertex
 10
8.344088898786403
 20
-4.21624722851351
 30
0.0
  0
VERTEX
  5
1A9B
330
1A93
100
AcDbEntity
  8
OUT57
100
AcDbVertex
100
AcDb2dVertex
 10
10.73793070548508
 20
-5.289616448999823
 30
0.0
 42
0.0049306492029133
  0
VERTEX
  5
1A9C
330
1A93
100
AcDbEntity
  8
OUT57
100
AcDbVertex
100
AcDb2dVertex
 10
10.74696798537395
 20
-5.293562085870633
 30
0.0
  0
VERTEX
  5
1A9D
330
1A93
100
AcDbEntity
  8
OUT57
100
AcDbVertex
100
AcDb2dVertex
 10
12.9830594491371
 20
-6.243687766784035
 30
0.0
 42
0.0037566860233532
  0
VERTEX
  5
1A9E
330
1A93
100
AcDbEntity
  8
OUT57
100
AcDbVertex
100
AcDb2dVertex
 10
12.9899962576453
 20
-6.246573915415411
 30
0.0
  0
VERTEX
  5
1A9F
330
1A93
100
AcDbEntity
  8
OUT57
100
AcDbVertex
100
AcDb2dVertex
 10
15.11040056434395
 20
-7.110164207117691
 30
0.0
 42
0.0024183586336383
  0
VERTEX
  5
1AA0
330
1A93
100
AcDbEntity
  8
OUT57
100
AcDbVertex
100
AcDb2dVertex
 10
15.11488876181132
 20
-7.1119668839562
 30
0.0
  0
VERTEX
  5
1AA1
330
1A93
100
AcDbEntity
  8
OUT57
100
AcDbVertex
100
AcDb2dVertex
 10
17.15766818282182
 20
-7.920993668673589
 30
0.0
 42
0.0021309695014905
  0
VERTEX
  5
1AA2
330
1A93
100
AcDbEntity
  8
OUT57
100
AcDbVertex
100
AcDb2dVertex
 10
17.16163731293127
 20
-7.922546074958291
 30
0.0
  0
VERTEX
  5
1AA3
330
1A93
100
AcDbEntity
  8
OUT57
100
AcDbVertex
100
AcDb2dVertex
 10
19.14885046165099
 20
-8.690036162377169
 30
0.0
 42
0.0020999824305251
  0
VERTEX
  5
1AA4
330
1A93
100
AcDbEntity
  8
OUT57
100
AcDbVertex
100
AcDb2dVertex
 10
19.15277468104055
 20
-8.69153284251604
 30
0.0
  0
VERTEX
  5
1AA5
330
1A93
100
AcDbEntity
  8
OUT57
100
AcDbVertex
100
AcDb2dVertex
 10
21.10247925637206
 20
-9.425776774187568
 30
0.0
 42
0.00200583398547
  0
VERTEX
  5
1AA6
330
1A93
100
AcDbEntity
  8
OUT57
100
AcDbVertex
100
AcDb2dVertex
 10
21.10623915547245
 20
-9.427175526905046
 30
0.0
  0
VERTEX
  5
1AA7
330
1A93
100
AcDbEntity
  8
OUT57
100
AcDbVertex
100
AcDb2dVertex
 10
23.03649285631835
 20
-10.13646384438044
 30
0.0
 42
0.0018495325372864
  0
VERTEX
  5
1AA8
330
1A93
100
AcDbEntity
  8
OUT57
100
AcDbVertex
100
AcDb2dVertex
 10
23.03996961510867
 20
-10.13772683176239
 30
0.0
  0
VERTEX
  5
1AA9
330
1A93
100
AcDbEntity
  8
OUT57
100
AcDbVertex
100
AcDb2dVertex
 10
24.96883014037159
 20
-10.83035007659282
 30
0.0
 42
0.0016381573699908
  0
VERTEX
  5
1AAA
330
1A93
100
AcDbEntity
  8
OUT57
100
AcDbVertex
100
AcDb2dVertex
 10
24.97191728553182
 20
-10.83144721624819
 30
0.0
  0
VERTEX
  5
1AAB
330
1A93
100
AcDbEntity
  8
OUT57
100
AcDbVertex
100
AcDb2dVertex
 10
26.91744233411436
 20
-11.51569592998499
 30
0.0
 42
0.0014169515402746
  0
VERTEX
  5
1AAC
330
1A93
100
AcDbEntity
  8
OUT57
100
AcDbVertex
100
AcDb2dVertex
 10
26.92011836226366
 20
-11.51662858628055
 30
0.0
  0
VERTEX
  5
1AAD
330
1A93
100
AcDbEntity
  8
OUT57
100
AcDbVertex
100
AcDb2dVertex
 10
28.89682017982198
 20
-12.19927781608635
 30
0.0
 42
0.0013111701672512
  0
VERTEX
  5
1AAE
330
1A93
100
AcDbEntity
  8
OUT57
100
AcDbVertex
100
AcDb2dVertex
 10
28.89930110398035
 20
-12.20012732212291
 30
0.0
  0
VERTEX
  5
1AAF
330
1A93
100
AcDbEntity
  8
OUT57
100
AcDbVertex
100
AcDb2dVertex
 10
30.90751012318477
 20
-12.88189013760609
 30
0.0
 42
0.001245227543148
  0
VERTEX
  5
1AB0
330
1A93
100
AcDbEntity
  8
OUT57
100
AcDbVertex
100
AcDb2dVertex
 10
30.90987036882521
 20
-12.88268486260193
 30
0.0
  0
VERTEX
  5
1AB1
330
1A93
100
AcDbEntity
  8
OUT57
100
AcDbVertex
100
AcDb2dVertex
 10
32.94637156909955
 20
-13.56275883898263
 30
0.0
 42
0.001187305095193
  0
VERTEX
  5
1AB2
330
1A93
100
AcDbEntity
  8
OUT57
100
AcDbVertex
100
AcDb2dVertex
 10
32.94862568681867
 20
-13.56350563946921
 30
0.0
  0
VERTEX
  5
1AB3
330
1A93
100
AcDbEntity
  8
OUT57
100
AcDbVertex
100
AcDb2dVertex
 10
35.01020404758683
 20
-14.24108835196745
 30
0.0
 42
0.0011365310375682
  0
VERTEX
  5
1AB4
330
1A93
100
AcDbEntity
  8
OUT57
100
AcDbVertex
100
AcDb2dVertex
 10
35.01236506933706
 20
-14.24179318020504
 30
0.0
  0
VERTEX
  5
1AB5
330
1A93
100
AcDbEntity
  8
OUT57
100
AcDbVertex
100
AcDb2dVertex
 10
37.09580557002295
 20
-14.91608220404078
 30
0.0
 42
0.0010921828549732
  0
VERTEX
  5
1AB6
330
1A93
100
AcDbEntity
  8
OUT57
100
AcDbVertex
100
AcDb2dVertex
 10
37.0978852659873
 20
-14.9167502660643
 30
0.0
  0
VERTEX
  5
1AB7
330
1A93
100
AcDbEntity
  8
OUT57
100
AcDbVertex
100
AcDb2dVertex
 10
39.19997288601481
 20
-15.58694317645768
 30
0.0
 42
0.0010536632704718
  0
VERTEX
  5
1AB8
330
1A93
100
AcDbEntity
  8
OUT57
100
AcDbVertex
100
AcDb2dVertex
 10
39.20198198202607
 20
-15.58757906049368
 30
0.0
  0
VERTEX
  5
1AB9
330
1A93
100
AcDbEntity
  8
OUT57
100
AcDbVertex
100
AcDb2dVertex
 10
41.31950170081892
 20
-16.25287343266461
 30
0.0
 42
0.0010204814153726
  0
VERTEX
  5
1ABA
330
1A93
100
AcDbEntity
  8
OUT57
100
AcDbVertex
100
AcDb2dVertex
 10
41.32145006473007
 20
-16.25348121442676
 30
0.0
  0
VERTEX
  5
1ABB
330
1A93
100
AcDbEntity
  8
OUT57
100
AcDbVertex
100
AcDb2dVertex
 10
43.45118686171226
 20
-16.91307462359532
 30
0.0
 42
0.0009922381333516
  0
VERTEX
  5
1ABC
330
1A93
100
AcDbEntity
  8
OUT57
100
AcDbVertex
100
AcDb2dVertex
 10
43.4530836654942
 20
-16.91365795344319
 30
0.0
  0
VERTEX
  5
1ABD
330
1A93
100
AcDbEntity
  8
OUT57
100
AcDbVertex
100
AcDb2dVertex
 10
45.59182252008958
 20
-17.56674797482935
 30
0.0
 42
0.0009686146270109
  0
VERTEX
  5
1ABE
330
1A93
100
AcDbEntity
  8
OUT57
100
AcDbVertex
100
AcDb2dVertex
 10
45.59367638321534
 20
-17.5673101506485
 30
0.0
  0
VERTEX
  5
1ABF
330
1A93
100
AcDbEntity
  8
OUT57
100
AcDbVertex
100
AcDb2dVertex
 10
46.91082507120298
 20
-17.96394505568469
 30
0.0
 42
0.0009493638647432
  0
SEQEND
  5
1AC0
330
1A93
100
AcDbEntity
  8
OUT57
  0
LINE
  5
1AC1
330
168B
100
AcDbEntity
  8
OUT57
100
AcDbLine
 10
46.91082507120298
 20
-17.96394505568475
 30
0.0
 11
32.39544521206109
 21
-124.7074947497222
 31
0.0
  0
ARC
  5
1AC2
330
168B
100
AcDbEntity
  8
OUT57
100
AcDbCircle
 10
27.44104269884426
 20
-124.0337769029712
 30
0.0
 40
5.0
100
AcDbArc
 50
262.2562079868508
 51
352.2562079868488
  0
LINE
  5
1AC3
330
168B
100
AcDbEntity
  8
OUT57
100
AcDbLine
 10
-0.0000000000000036
 20
-126.4461716357509
 30
0.0
 11
26.76732485209322
 21
-128.988179416188
 31
0.0
  0
LINE
  5
1AC4
330
168B
100
AcDbEntity
  8
OUT57
100
AcDbLine
 10
0.0
 20
0.0
 30
0.0
 11
-0.0000000000000036
 21
-126.4461716357509
 31
0.0
  0
ENDBLK
  5
168D
330
168B
100
AcDbEntity
  8
0
100
AcDbBlockEnd
  0
BLOCK
  5
1B80
330
1B7F
100
AcDbEntity
  8
0
100
AcDbBlockBegin
  2
Rudder
 70
     0
 10
0.0
 20
0.0
 30
0.0
  3
Rudder
  1
Rudder
  0
LINE
  5
1B81
330
1B7F
100
AcDbEntity
  8
OUT55
100
AcDbLine
 10
47.42835271767422
 20
-33.42241752332107
 30
0.0
 11
34.00678734173357
 21
-142.7322955507063
 31
0.0
  0
ARC
  5
1B82
330
1B7F
100
AcDbEntity
  8
OUT55
100
AcDbCircle
 10
32.02169503845084
 20
-142.488556863896
 30
0.0
 40
2.0
100
AcDbArc
 50
263.000000000007
 51
353.0000000000013
  0
ARC
  5
1B83
330
1B7F
100
AcDbEntity
  8
OUT55
100
AcDbCircle
 10
43.45816811110876
 20
-32.93494014970058
 30
0.0
 40
4.0
100
AcDbArc
 50
353.0000000000011
 51
82.99999999999402
  0
LINE
  5
1B84
330
1B7F
100
AcDbEntity
  8
OUT55
100
AcDbLine
 10
31.84415416910565
 20
-144.4817772371288
 30
0.0
 11
31.8441541691052
 21
-144.4817772371288
 31
0.0
  0
LINE
  5
1B85
330
1B7F
100
AcDbEntity
  8
OUT55
100
AcDbLine
 10
4.139842081242932
 20
5.008809249228847
 30
0.0
 11
19.05107105310753
 21
3.177940547395934
 31
0.0
  0
ARC
  5
1B86
330
1B7F
100
AcDbEntity
  8
OUT55
100
AcDbCircle
 10
18.56359367948698
 20
-0.7922440591693736
 30
0.0
 40
4.0
100
AcDbArc
 50
325.3833652620664
 51
82.99999999999402
  0
LINE
  5
1B87
330
1B7F
100
AcDbEntity
  8
OUT55
100
AcDbLine
 10
4.139842081242932
 20
5.008809249228847
 30
0.0
 11
-0.1440299517378207
 21
-29.88052863974782
 31
0.0
  0
ARC
  5
1B88
330
1B7F
100
AcDbEntity
  8
OUT55
100
AcDbCircle
 10
24.71288570348111
 20
-16.52817132385546
 30
0.0
 40
9.999999999999998
100
AcDbArc
 50
145.3833652620664
 51
271.959738471814
  0
LINE
  5
1B89
330
1B7F
100
AcDbEntity
  8
OUT55
100
AcDbLine
 10
21.85547956441724
 20
-3.06457487148468
 30
0.0
 11
16.48317099115593
 21
-10.84734429306685
 31
0.0
  0
LINE
  5
1B8A
330
1B7F
100
AcDbEntity
  8
OUT55
100
AcDbLine
 10
23.49419226942973
 20
-26.45363284026875
 30
0.0
 11
43.94564548472931
 21
-28.96475554313528
 31
0.0
  0
LINE
  5
1B8B
330
1B7F
100
AcDbEntity
  8
OUT55
100
AcDbLine
 10
-0.1440299517378207
 20
-29.88052863974782
 30
0.0
 11
-0.1440299517378207
 21
-114.0123641590916
 31
0.0
  0
LINE
  5
1B8C
330
1B7F
100
AcDbEntity
  8
OUT55
100
AcDbLine
 10
31.77795635164057
 20
-144.4736491671787
 30
0.0
 11
26.19988974610828
 21
-143.7887487083313
 31
0.0
  0
ARC
  5
1B8D
330
1B7F
100
AcDbEntity
  8
OUT55
100
AcDbCircle
 10
29.85597004826218
 20
-114.0123641590916
 30
0.0
 40
30.0
100
AcDbArc
 50
180.0
 51
263.000000000007
  0
ENDBLK
  5
1B8E
330
1B7F
100
AcDbEntity
  8
0
100
AcDbBlockEnd
  0
BLOCK
  5
1C59
330
1C58
100
AcDbEntity
  8
0
100
AcDbBlockBegin
  2
MOD 3 RUDDER
 70
     0
 10
0.0
 20
0.0
 30
0.0
  3
MOD 3 RUDDER
  1
MOD 3 RUDDER
  0
LINE
  5
1C5B
330
1C58
100
AcDbEntity
  8
CTR34
100
AcDbLine
 10
29.99999999999989
 20
-46.09460407463865
 30
0.0
 11
23.44500827014383
 21
-49.95865284074929
 31
0.0
  0
LINE
  5
1C5C
330
1C58
100
AcDbEntity
  8
CTR34
100
AcDbLine
 10
29.99999999999989
 20
-46.09460407463865
 30
0.0
 11
29.99999999999989
 21
13.92425861535986
 31
0.0
  0
REGION
  5
1C5D
330
1C58
100
AcDbEntity
  8
OUT57
100
AcDbModelerGeometry
 70
     1
  1
mogoo nfm m o 
  1
_ll P/:1 [:,681 ^ 336>1<: ^ \VL ]*63;:- _nk ^ \VL mogqoo QK _mk L*1 ^ /- nf nlemfemo monj 
  1
mjqlffffffffffffff fqfffffffffffffffj:rooh n:rono 
  1
>,27:>;:- {rn rn _nm mogqoqjqhook |
  1
=0;& {rn rn {rn {m {rn {rn |
  1
3*2/ {rn rn {rn {rn {l {n |
  1
,7:33 {rn rn {rn {rn {rn {k {rn {m |
  1
9><: {rn rn {rn {rn {j {l {rn {i 90-(>-; ;0*=3: 0*+ |
  1
300/ {rn rn {rn {rn {h {k |
  1
/3>1:r,*-9><: {rn rn {rn miqgomjlihmjokhmhj rilqonolikioilojkhl o o o n n o o 90-(>-;@) V V V V |
  1
<0:;8: {rn rn {rn {g {f {rn {no 90-(>-; {j {rn |
  1
<0:;8: {rn rn {rn {nn {h {rn {nm 90-(>-; {j {rn |
  1
<0:;8: {rn rn {rn {h {nl {rn {nk -:):-,:; {j {rn |
  1
:;8: {rn rn {rn {nj o {ni ngqffmnifogignolj {h {nh 90-(>-; _h *1410(1 |
  1
<0:;8: {rn rn {rn {ng {g {rn {nf 90-(>-; {j {rn |
  1
:;8: {rn rn {rn {ni rnqjhohfilmihfkgfii {mo jqigklknggiogogong:ronj {g {mn 90-(>-; _h *1410(1 |
  1
<0:;8: {rn rn {rn {f {mm {rn {ml -:):-,:; {j {rn |
  1
:;8: {rn rn {rn {nj rmqgonninjngilfmhof:ronk {mk nloqommmgnokflkhmh {f {mj 90-(>-; _h *1410(1 |
  1
):-+:' {rn rn {rn {no {mi |
  1
):-+:' {rn rn {rn {no {mh |
  1
,+->687+r<*-): {rn rn {rn mmqoohglofnlngfghg rnmgqnkimonkjiiilfl o n o o V V |
  1
<0:;8: {rn rn {rn {mg {nn {rn {mf -:):-,:; {j {rn |
  1
:;8: {rn rn {rn {mo o {lo nojqifhnfijlhlhfkl {nn {ln 90-(>-; _h *1410(1 |
  1
):-+:' {rn rn {rn {nm {lm |
  1
:336/,:r<*-): {rn rn {rn knqoooooooooooommh rnmlqnkimonkjiiilgh o o o n j o o n V V |
  1
<0:;8: {rn rn {rn {nl {ll {rn {lk -:):-,:; {j {rn |
  1
:;8: {rn rn {rn {mk o {lj nqlgmnfiokgjhklffn {nl {li 90-(>-; _h *1410(1 |
  1
):-+:' {rn rn {rn {ml {lh |
  1
,+->687+r<*-): {rn rn {rn mmqoohglofnlngfghg rnmgqnkimonkjiiilf o roqnifminffihjiojfjh oqfgjjhnofnjmhmnfhg o V V |
  1
/061+ {rn rn {rn mmqoohglofnlngfghg rnmgqnkimonkjiiilfl o |
  1
/061+ {rn rn {rn knqoooooooooooommh rnmgqnkimonkjiiilgh o |
  1
<0:;8: {rn rn {rn {lg {ng {rn {lf -:):-,:; {j {rn |
  1
:;8: {rn rn {rn {ko o {lo nlqmfglllmjgihoifn {ng {kn 90-(>-; _h *1410(1 |
  1
):-+:' {rn rn {rn {nf {km |
  1
,+->687+r<*-): {rn rn {rn kiqoooooooooooommh rnmlqnkimonkjiiilgj o rhqnojkmhljhionoonf:ronj n o V V |
  1
/061+ {rn rn {rn kiqoooooooooooommh rnmlqnkimonkjiiilgj o |
  1
<0:;8: {rn rn {rn {mm {kl {rn {kk -:):-,:; {j {rn |
  1
:;8: {rn rn {rn {lj roqonnlggioiimiglhnhl {kj oqonnlggioiimhojmoff {mm {ki 90-(>-; _h *1410(1 |
  1
):-+:' {rn rn {rn {ml {kh |
  1
,+->687+r<*-): {rn rn {rn o o o oqggmlfiljmokoiogfi roqkhojoigloggohmhgn o V V |
  1
/061+ {rn rn {rn o o o |
  1
<0:;8: {rn rn {rn {kg {mg {rn {kf -:):-,:; {j {rn |
  1
:;8: {rn rn {rn {jo roqoommhloinofikhjlhmh {ko oqoommhloinofilgjnihf {mg {jn 90-(>-; _h *1410(1 |
  1
):-+:' {rn rn {rn {lf {jm |
  1
,+->687+r<*-): {rn rn {rn llqlkhhfnmgjnnmgim rnlqljkmnhhllgfhhif o oqfjnknlnnglhfgfiim roqlohfnhlmliomifikn o V V |
  1
/061+ {rn rn {rn kjqffffffffffffhhl rnhqkkfookfnfmgkkm o |
  1
<0:;8: {rn rn {rn {ll {jl {rn {jk -:):-,:; {j {rn |
  1
:;8: {rn rn {rn {kj o {jj lqnhjhomjfmlkimnj {ll {ji 90-(>-; _h *1410(1 |
  1
):-+:' {rn rn {rn {lk {jh |
  1
:336/,:r<*-): {rn rn {rn nqkjkgfgniijogmon roqmofnlkjoikjoijmig o o o n roqmlomnliljjmlfnioj roqkklgkghnjmlgikfhm o n V V |
  1
/061+ {rn rn {rn nqmnfikkhjnoiiffkn roqijollmigmkhoiojoj o |
  1
<0:;8: {rn rn {rn {jg {lg {rn {jf -:):-,:; {j {rn |
  1
:;8: {rn rn {rn {io o {jo mqnhoohkjhhomgnhlh {lg {in 90-(>-; _h *1410(1 |
  1
):-+:' {rn rn {rn {kf {im |
  1
:336/,:r<*-): {rn rn {rn llqjonhkffkiflolnh rnmqghgjnnnhkhnojmj o o o n roqnjjolfjhlmmmnlnkh roqkhjljjlhlnomjhhln o n V V |
  1
/061+ {rn rn {rn llqlkhhfnmgjnnmgim rnlqljkmnhhllgfhhif o |
  1
<0:;8: {rn rn {rn {kl {il {rn {ik -:):-,:; {j {rn |
  1
:;8: {rn rn {rn {jj roqonniofghfmihgjlffk {ij oqonniofghfmigoiinkm {kl {ii 90-(>-; _h *1410(1 |
  1
):-+:' {rn rn {rn {kk {ih |
  1
,+->687+r<*-): {rn rn {rn nqmmfhjkniflhoiog roqijjjhinfknfninomg o oqgfmggllhjkgmjfm roqkjomghffkmhlkjh o V V |
  1
/061+ {rn rn {rn nqmmfhjkniflhoiog roqijjjhinfknfninomg o |
  1
<0:;8: {rn rn {rn {ig {kg {rn {if -:):-,:; {j {rn |
  1
:;8: {rn rn {rn {ho roqoomlhkiofohkjglfiik {io oqoomlhkiofohkjknhmmg {kg {hn 90-(>-; _h *1410(1 |
  1
):-+:' {rn rn {rn {jf {hm |
  1
,+->687+r<*-): {rn rn {rn lnqmgkojnfomjfkkji rnmqihjflonflninfki o oqfjooolkinfokhnknf roqlnmmlflihnolmhmni o V V |
  1
/061+ {rn rn {rn llqlkjilomillimili rnlqljljnmfojiionmj o |
  1
<0:;8: {rn rn {rn {jl {hl {rn {hk -:):-,:; {j {rn |
  1
:;8: {rn rn {rn {ij o {hj mqghnfjjjnmhfjlngj {jl {hi 90-(>-; _h *1410(1 |
  1
):-+:' {rn rn {rn {jk {hh |
  1
:336/,:r<*-): {rn rn {rn kqmfoklomniifmfmji rnqilfnnjmjhnillgmj o o o n roqmnffkjgoinjmmofmf roqkkfomjklimoikfofk o n V V |
  1
/061+ {rn rn {rn kqoijmgimnfjjljnlj rmqogjjjifkkfogmojk o |
  1
<0:;8: {rn rn {rn {hg {jg {rn {hf -:):-,:; {j {rn |
  1
:;8: {rn rn {rn {go o {ho mqnkhojlmhngmgkffg {jg {gn 90-(>-; _h *1410(1 |
  1
):-+:' {rn rn {rn {if {gm |
  1
:336/,:r<*-): {rn rn {rn lnqkkonhnjginlinol rnmqmoofmgkimmnihg o o o n roqnjhmkhngjhknngflh roqkhkimfiiggikinjll o n V V |
  1
/061+ {rn rn {rn lnqmgkojnfomjfkkji rnmqihjflonflninfki o |
  1
<0:;8: {rn rn {rn {il {gl {rn {gk -:):-,:; {j {rn |
  1
:;8: {rn rn {rn {hj roqonnnhhggjhnngmmhif {gj oqonnnhhggjhnngllolh {il {gi 90-(>-; _h *1410(1 |
  1
):-+:' {rn rn {rn {ik {gh |
  1
,+->687+r<*-): {rn rn {rn kqohjhnmmkhjljjlkj rmqofoiilfngiggihik o oqfolofhlmloklknoj roqkmfkljflglofjhji o V V |
  1
/061+ {rn rn {rn kqohjhnmmkhjljjlkj rmqofoiilfngiggihik o |
  1
<0:;8: {rn rn {rn {gg {ig {rn {gf -:):-,:; {j {rn |
  1
:;8: {rn rn {rn {fo roqoomkfokjlhffnkogjff {go oqoomkfokjlhffoonomhg {ig {fn 90-(>-; _h *1410(1 |
  1
):-+:' {rn rn {rn {hf {fm |
  1
,+->687+r<*-): {rn rn {rn mfqmkjmfijgkioofij rnnqffjnofknimfkinn o oqfkgjofgioflnkmhog roqlnihkhiomjknjgfk o V V |
  1
/061+ {rn rn {rn lnqmgnhfhhgkghjlg rnmqihjngllfmihjlij o |
  1
<0:;8: {rn rn {rn {hl {fl {rn {fk -:):-,:; {j {rn |
  1
:;8: {rn rn {rn {gj o {fj mqimlkhoffglnmlmf {hl {fi 90-(>-; _h *1410(1 |
  1
):-+:' {rn rn {rn {hk {fh |
  1
:336/,:r<*-): {rn rn {rn iqggkogjjjmnfnklik rmqghmklinihjgghnih o o o n roqmofijhlonogmgigfm roqkjlfmokfjljnnihfi o n V V |
  1
/061+ {rn rn {rn iqiiflihjglokohjmg rlqlmlfgkgmfnofmfmi o |
  1
<0:;8: {rn rn {rn {fg {hg {rn {ff -:):-,:; {j {rn |
  1
:;8: {rn rn {rn {noo o {fo mqnmohhfnomkjomnkl {hg {non 90-(>-; _h *1410(1 |
  1
):-+:' {rn rn {rn {gf {nom |
  1
:336/,:r<*-): {rn rn {rn mfqkoliholgjgjlini rnnqjmogjkkgjglfkfl o o o n roqnjfjjkkngghfjmgjk roqkhlgjfolhkhgiikh o n V V |
  1
/061+ {rn rn {rn mfqmkjmfijgkioofij rnnqffjnofknimfkinn o |
  1
<0:;8: {rn rn {rn {gl {nol {rn {nok -:):-,:; {j {rn |
  1
:;8: {rn rn {rn {fj roqoofginmngkflngmffjf {noj oqoofginmngkflkholohh {gl {noi 90-(>-; _h *1410(1 |
  1
):-+:' {rn rn {rn {gk {noh |
  1
,+->687+r<*-): {rn rn {rn iqihfjnjnnkjimnjol rlqlmgihnhgmmoingi o oqfnmkhnmmfmlhlgmgf roqkofnkoghjmiihmmfk o V V |
  1
/061+ {rn rn {rn iqihfjnjnnkjimnjol rlqlmgihnhgmmoingi o |
  1
<0:;8: {rn rn {rn {nog {gg {rn {nof -:):-,:; {j {rn |
  1
:;8: {rn rn {rn {nno roqoomimmllgglngolmog {noo oqoomimmllgglnhnojokg {gg {nnn 90-(>-; _h *1410(1 |
  1
):-+:' {rn rn {rn {ff {nnm |
  1
,+->687+r<*-): {rn rn {rn mhqmlkhmhlnfhjingf rnnqlnmjjnghjgnjjgi o oqfkifmoknoflfiinlf roqlmnkigoflgmmkgghj o V V |
  1
/061+ {rn rn {rn mfqmkmflillgfiojf rnnqffklnkifnmfggmj o |
  1
<0:;8: {rn rn {rn {fl {nnl {rn {nnk -:):-,:; {j {rn |
  1
:;8: {rn rn {rn {noj o {nnj mqkmfjhiggjhijlmoi {fl {nni 90-(>-; _h *1410(1 |
  1
):-+:' {rn rn {rn {fk {nnh |
  1
:336/,:r<*-): {rn rn {rn fqmhhfmhljggfonnoi rlqfkjgojlggoifookj o o o n roqmoooinjmkfiojljli roqkjgmlohnmgghlhhkl o n V V |
  1
/061+ {rn rn {rn fqohlljifmnmiogmkj rkqkomoknoomifmjji o |
  1
<0:;8: {rn rn {rn {nng {fg {rn {nnf -:):-,:; {j {rn |
  1
:;8: {rn rn {rn {nmo o {nno mqofnmjgoojhmnnogl {fg {nmn 90-(>-; _h *1410(1 |
  1
):-+:' {rn rn {rn {nof {nmm |
  1
:336/,:r<*-): {rn rn {rn mhqlfjkinliiikjjhh rnoqglfofniholmnhj o o o n roqninfhjoijgfmoflng roqkhlolhohgflmkhllm o n V V |
  1
/061+ {rn rn {rn mhqmlkhmhlnfhjingf rnnqlnmjjnghjgnjjgi o |
  1
<0:;8: {rn rn {rn {nol {nml {rn {nmk -:):-,:; {j {rn |
  1
:;8: {rn rn {rn {nnj roqoohjnlllihomklffiim {nmj oqoohjnlllihomlnnfojj {nol {nmi 90-(>-; _h *1410(1 |
  1
):-+:' {rn rn {rn {nok {nmh |
  1
,+->687+r<*-): {rn rn {rn fqogmlfkmonnkfhgm rkqkojfgiilfjillofk o oqfmolimjomfhfoingi roqlfnoiilnjkggfiigi o V V |
  1
/061+ {rn rn {rn fqogmlfkmonnkfhgm rkqkojfgiilfjillofk o |
  1
<0:;8: {rn rn {rn {nmg {nog {rn {nmf -:):-,:; {j {rn |
  1
:;8: {rn rn {rn {nlo roqoomgllfonnglhighmgl {nmo oqoomgllfonngknjngofj {nog {nln 90-(>-; _h *1410(1 |
  1
):-+:' {rn rn {rn {nnf {nlm |
  1
,+->687+r<*-): {rn rn {rn mjqmjjjkkjhgolfkim rnoqimfojlnlffhlmml o oqfkjmmnlfggiilfkmm roqlmikmffkmnlfmgiih o V V |
  1
/061+ {rn rn {rn mhqmlmmkilfjjfhhnl rnnqlnnhomlifhhfogk o |
  1
<0:;8: {rn rn {rn {nnl {nll {rn {nlk -:):-,:; {j {rn |
  1
:;8: {rn rn {rn {nmj o {nlj mqmgfjmonhnjngnfh {nnl {nli 90-(>-; _h *1410(1 |
  1
):-+:' {rn rn {rn {nnk {nlh |
  1
:336/,:r<*-): {rn rn {rn nnqjnkonggmmiiojki rkqgfjflnoigfgmmli o o o n roqnfmohonhkihoiiih roqkinilhljjjnjffmoj o n V V |
  1
/061+ {rn rn {rn nnqlngkgjiikfnmgmg rjqljinnmlmokhihnnk o |
  1
<0:;8: {rn rn {rn {nlg {nng {rn {nlf -:):-,:; {j {rn |
  1
:;8: {rn rn {rn {nko o {nlo mqoimlkklonmjlkihf {nng {nkn 90-(>-; _h *1410(1 |
  1
):-+:' {rn rn {rn {nmf {nkm |
  1
:336/,:r<*-): {rn rn {rn mjqknghjfjkfofhlln rnoqnjikkmkkojkjhlm o o o n roqnikjjlikjgfifgjjn roqkhmnkimihngogmhfh o n V V |
  1
/061+ {rn rn {rn mjqmjjjkkjhgolfkim rnoqimfojlnlffhlmml o |
  1
<0:;8: {rn rn {rn {nml {nkl {rn {nkk -:):-,:; {j {rn |
  1
:;8: {rn rn {rn {nlj roqookglihohglgmfmnohi {nkj oqookglihohglgofffgin {nml {nki 90-(>-; _h *1410(1 |
  1
):-+:' {rn rn {rn {nmk {nkh |
  1
,+->687+r<*-): {rn rn {rn nnqlmjkmmkhlkmnoff rjqljgffgkifnognkk o oqfminlkgoomkngknfm roqlhhnfmifgkhmjkgmm o V V |
  1
/061+ {rn rn {rn nnqlmjkmmkhlkmnoff rjqljgffgkifnognkk o |
  1
<0:;8: {rn rn {rn {nkg {nmg {rn {nkf -:):-,:; {j {rn |
  1
:;8: {rn rn {rn {njo roqoolmhilnngofliinifm {nko oqoolmhilnngofnkfmgg {nmg {njn 90-(>-; _h *1410(1 |
  1
):-+:' {rn rn {rn {nlf {njm |
  1
,+->687+r<*-): {rn rn {rn mlqlohlkljonlohimg rfqfklghnhiffkofmih o oqfklljiogimhjmijig roqllnhgnffgklhgjmhm o V V |
  1
/061+ {rn rn {rn mjqmjmgigjkfgfonfj rnoqimgnmokglihhhnf o |
  1
<0:;8: {rn rn {rn {nll {njl {rn {njk -:):-,:; {j {rn |
  1
:;8: {rn rn {rn {nkj o {njj mqnfhnjofojkkknnkj {nll {nji 90-(>-; _h *1410(1 |
  1
):-+:' {rn rn {rn {nlk {njh |
  1
:336/,:r<*-): {rn rn {rn nlqilkkmlnmfljmhk rjqhjfjmnlioifnmmlf o o o n roqngiljkklomjghhjom roqkilfhknijjhlfillh o n V V |
  1
/061+ {rn rn {rn nlqkkjgmihgonnfhhk riqmmmjgghiognokmkk o |
  1
<0:;8: {rn rn {rn {njg {nlg {rn {njf -:):-,:; {j {rn |
  1
:;8: {rn rn {rn {nio o {njo mqokfkkimlgiifjlkf {nlg {nin 90-(>-; _h *1410(1 |
  1
):-+:' {rn rn {rn {nkf {nim |
  1
:336/,:r<*-): {rn rn {rn mlqkhlmlkjoojmionf rfqkhmnflhmihfllik o o o n roqnihkljkhokkmnfkkm roqkhnnlmoonflkifgim o n V V |
  1
/061+ {rn rn {rn mlqlohlkljonlohimg rfqfklghnhiffkofmih o |
  1
<0:;8: {rn rn {rn {nkl {nil {rn {nik -:):-,:; {j {rn |
  1
:;8: {rn rn {rn {njj roqookminflmjjnhlohmhj {nij oqookminflmjjngiggfl {nkl {nii 90-(>-; _h *1410(1 |
  1
):-+:' {rn rn {rn {nkk {nih |
  1
,+->687+r<*-): {rn rn {rn nlqkjolnkfhhjghnkn riqmmklfnklhikgghi o oqfmfhkonjlfnghfglg roqligmniloljlhgnmn o V V |
  1
/061+ {rn rn {rn nlqkjolnkfhhjghnkn riqmmklfnklhikgghi o |
  1
<0:;8: {rn rn {rn {nig {nkg {rn {nif -:):-,:; {j {rn |
  1
:;8: {rn rn {rn {nho roqooliffoiogjiihmfoni {nio oqooliffoiogjihmnmjnl {nkg {nhn 90-(>-; _h *1410(1 |
  1
):-+:' {rn rn {rn {njf {nhm |
  1
,+->687+r<*-): {rn rn {rn mnqlhjlfjgloggkkgi rfqmjonjnlgjkjjnmil o oqfknningoifikjnjhf roqllhfjimgghjglogog o V V |
  1
/061+ {rn rn {rn mlqlokmjiljinkhllk rfqfkmhhkilomgjjjjl o |
  1
<0:;8: {rn rn {rn {njl {nhl {rn {nhk -:):-,:; {j {rn |
  1
:;8: {rn rn {rn {nij o {nhj mqnlomhninoogkmiln {njl {nhi 90-(>-; _h *1410(1 |
  1
):-+:' {rn rn {rn {njk {nhh |
  1
:336/,:r<*-): {rn rn {rn njqihhmomjjolhjnnk riqjigjkgnkjkohholj o o o n roqngmnmjmkohggohjfl roqkijijojofnkgjinmn o n V V |
  1
/061+ {rn rn {rn njqkflofklfgjfhjhh rhqollkngmmmliimijn o |
  1
<0:;8: {rn rn {rn {nhl {njg {rn {nhg -:):-,:; {j {rn |
  1
:;8: {rn rn {rn {nhf o {nho mqojikkjhgjohnokkh {njg {ngo 90-(>-; _h *1410(1 |
  1
):-+:' {rn rn {rn {nif {ngn |
  1
:336/,:r<*-): {rn rn {rn mnqjkklhlfhjmgollh rgqhhfjhokgnfihkmji o o o n roqnhohnhifnhjfnhh roqkiffjmimkfgjflokf o n V V |
  1
/061+ {rn rn {rn mnqlhjlfjgloggkkgi rfqmjonjnlgjkjjnmil o |
  1
<0:;8: {rn rn {rn {nil {nig {rn {ngm -:):-,:; {j {rn |
  1
:;8: {rn rn {rn {nhj roqooknfffjgighmgjhhon {ngl oqooknfffjgighnjhofh {nil {ngk 90-(>-; _h *1410(1 |
  1
):-+:' {rn rn {rn {nik {ngj |
  1
,+->687+r<*-): {rn rn {rn njqkfhoiljmghoholn rhqolkfhoimgijnomkn o oqflmgkkfiikggnhfkf roqliomhgokllnggioi o V V |
  1
/061+ {rn rn {rn njqkfhoiljmghoholn rhqolkfhoimgijnomkn o |
  1
:;8: {rn rn {rn {ngi roqookonniimjfohohlomi {nhf oqookonniimjfofnjgjim {nig {ngh 90-(>-; _h *1410(1 |
  1
):-+:' {rn rn {rn {nhg {ngg |
  1
,+->687+r<*-): {rn rn {rn nfqkkniijlhnmkgnhg rgqjlfiooogojfhhmmk o oqflgiljglmmoohhong roqlkkfofgoillgfkhog o V V |
  1
/061+ {rn rn {rn mnqlhnfnfohmofknon rfqmkgggglfgohlnmom o |
  1
:;8: {rn rn {rn {ngl o {ngi mqogllhhjijfkoikgm {nhl {ngf 90-(>-; _h *1410(1 |
  1
):-+:' {rn rn {rn {nhk {nfo |
  1
:336/,:r<*-): {rn rn {rn nhqiikknjiffoggkog rhqlliolgmlmgmglkli o o o n roqnhgnhgkglkihhfifn roqkihnhkfklhoiggfj o n V V |
  1
/061+ {rn rn {rn nhqkgkmhiihhkmigoi rhqgomkiohnioiffom o |
  1
):-+:' {rn rn {rn {ngm {nfn |
  1
:336/,:r<*-): {rn rn {rn nfqinknmomhkkmnllf rgqohomgmnikjonljon o o o n roqnhkllimjjjjimihmj roqkigimmlnoioklnhfh o n V V |
  1
/061+ {rn rn {rn nfqkkniijlhnmkgnhg rgqjlfiooogojfhhmmk o |
  1
,+->687+r<*-): {rn rn {rn nhqkggmoogfigniljm rhqgolfjhlfimoghhmf o oqfljglglmihijghnik roqljmkmfiokjlfhinmk o V V |
  1
/061+ {rn rn {rn nhqkggmoogfigniljm rhqgolfjhlfimoghhmf o |
  1
/061+ {rn rn {rn nfqklhfojkhmnkhgok rgqjlgmonlmhggomkkh o |
  1
Z1;r09r^ \VLr;>+> 
1001
ACAD_OBJECT_CHANGE_GUID
1070
     0
1071
        0
1070
     0
1070
     0
1070
     0
1070
     0
1070
     0
1070
     0
1070
     0
1070
     0
1070
     0
1070
     0
  0
ENDBLK
  5
1C5A
330
1C58
100
AcDbEntity
  8
0
100
AcDbBlockEnd
  0
BLOCK
  5
3198
330
3197
100
AcDbEntity
  8
0
100
AcDbBlockBegin
  2
2.5gm Servo Top
 70
     0
 10
0.0
 20
0.0
 30
0.0
  3
2.5gm Servo Top
  1
2.5gm Servo Top
  0
LINE
  5
319A
330
3197
100
AcDbEntity
  8
OUT57
100
AcDbLine
 10
-21.00000000000011
 20
4.249999999999915
 30
0.0
 11
-0.0000000000000568
 21
4.249999999999943
 31
0.0
  0
LINE
  5
319B
330
3197
100
AcDbEntity
  8
OUT57
100
AcDbLine
 10
-21.0
 20
-4.250000000000028
 30
0.0
 11
0.0000000000001137
 21
-4.250000000000028
 31
0.0
  0
LINE
  5
319C
330
3197
100
AcDbEntity
  8
OUT57
100
AcDbLine
 10
0.0
 20
4.249999999999943
 30
0.0
 11
0.0
 21
-4.250000000000085
 31
0.0
  0
LINE
  5
319D
330
3197
100
AcDbEntity
  8
OUT57
100
AcDbLine
 10
4.999999999999943
 20
2.694961686386222
 30
0.0
 11
5.0
 21
-2.694961686386193
 31
0.0
  0
LINE
  5
319E
330
3197
100
AcDbEntity
  8
OUT57
100
AcDbLine
 10
-21.0
 20
4.249999999999943
 30
0.0
 11
-20.99999999999994
 21
-4.250000000000028
 31
0.0
  0
LINE
  5
319F
330
3197
100
AcDbEntity
  8
OUT57
100
AcDbLine
 10
-26.00000000000006
 20
2.69496168638608
 30
0.0
 11
-25.99999999999994
 21
-2.69496168638625
 31
0.0
  0
LINE
  5
31A0
330
3197
100
AcDbEntity
  8
CTR34
100
AcDbLine
 10
-26.0
 20
-0.0000000000000568
 30
0.0
 11
5.0
 21
0.0
 31
0.0
  0
LINE
  5
31A1
330
3197
100
AcDbEntity
  8
CTR34
100
AcDbLine
 10
-5.5
 20
-5.500000000000028
 30
0.0
 11
-5.5
 21
5.499999999999886
 31
0.0
  0
ARC
  5
31A2
330
3197
100
AcDbEntity
  8
OUT57
100
AcDbCircle
 10
-11.5
 20
-0.0000000000000568
 30
0.0
 40
1.25
100
AcDbArc
 50
90.0
 51
270.0
  0
CIRCLE
  5
31A3
330
3197
100
AcDbEntity
  8
OUT57
100
AcDbCircle
 10
-24.0
 20
-0.0000000000000568
 30
0.0
 40
1.0
  0
CIRCLE
  5
31A4
330
3197
100
AcDbEntity
  8
OUT57
100
AcDbCircle
 10
3.0
 20
0.0000000000000853
 30
0.0
 40
1.0
  0
LINE
  5
31A5
330
3197
100
AcDbEntity
  8
OUT57
100
AcDbLine
 10
-21.00000000000011
 20
4.249999999999915
 30
0.0
 11
-26.0
 21
2.694961686386108
 31
0.0
  0
LINE
  5
31A6
330
3197
100
AcDbEntity
  8
OUT57
100
AcDbLine
 10
-25.99999999999994
 20
-2.69496168638625
 30
0.0
 11
-20.99999999999994
 21
-4.250000000000028
 31
0.0
  0
LINE
  5
31A7
330
3197
100
AcDbEntity
  8
OUT57
100
AcDbLine
 10
0.0000000000001137
 20
-4.250000000000028
 30
0.0
 11
4.999999999999943
 21
-2.694961686386193
 31
0.0
  0
LINE
  5
31A8
330
3197
100
AcDbEntity
  8
OUT57
100
AcDbLine
 10
4.999999999999943
 20
2.694961686386193
 30
0.0
 11
-0.0000000000000568
 21
4.249999999999943
 31
0.0
  0
CIRCLE
  5
31A9
330
3197
100
AcDbEntity
  8
OUT57
100
AcDbCircle
 10
-5.5
 20
-0.0000000000000853
 30
0.0
 40
4.250000000000028
  0
LINE
  5
31AA
330
3197
100
AcDbEntity
  8
OUT57
100
AcDbLine
 10
-11.5
 20
1.249999999999943
 30
0.0
 11
-9.56201920231797
 21
1.249999999999943
 31
0.0
  0
LINE
  5
31AB
330
3197
100
AcDbEntity
  8
OUT57
100
AcDbLine
 10
-11.5
 20
-1.250000000000057
 30
0.0
 11
-9.562019202318027
 21
-1.250000000000028
 31
0.0
  0
ENDBLK
  5
3199
330
3197
100
AcDbEntity
  8
0
100
AcDbBlockEnd
  0
BLOCK
  5
3A6E
330
3A6D
100
AcDbEntity
  8
0
100
AcDbBlockBegin
  2
*D11
 70
     1
 10
0.0
 20
0.0
 30
0.0
  3
*D11
  1
*D11
  0
LINE
  5
3A70
330
3A6D
100
AcDbEntity
  8
DIM34
370
    -2
100
AcDbLine
 10
422.9687293712152
 20
121.7469700749636
 30
0.0
 11
422.9687293712152
 21
133.1662049221615
 31
0.0
  0
LINE
  5
3A71
330
3A6D
100
AcDbEntity
  8
DIM34
370
    -2
100
AcDbLine
 10
522.9687293712152
 20
121.7469700749636
 30
0.0
 11
522.9687293712152
 21
133.1662049221615
 31
0.0
  0
LINE
  5
3A72
330
3A6D
100
AcDbEntity
  8
DIM34
370
    -2
100
AcDbLine
 10
425.9687293712152
 20
130.6662049221615
 30
0.0
 11
519.9687293712152
 21
130.6662049221615
 31
0.0
  0
SOLID
  5
3A73
330
3A6D
100
AcDbEntity
  8
DIM34
100
AcDbTrace
 10
425.9687293712152
 20
131.1662049221615
 30
0.0
 11
425.9687293712152
 21
130.1662049221615
 31
0.0
 12
422.9687293712152
 22
130.6662049221615
 32
0.0
 13
422.9687293712152
 23
130.6662049221615
 33
0.0
  0
SOLID
  5
3A74
330
3A6D
100
AcDbEntity
  8
DIM34
100
AcDbTrace
 10
519.9687293712152
 20
130.1662049221615
 30
0.0
 11
519.9687293712152
 21
131.1662049221615
 31
0.0
 12
522.9687293712152
 22
130.6662049221615
 32
0.0
 13
522.9687293712152
 23
130.6662049221615
 33
0.0
  0
MTEXT
  5
3A75
330
3A6D
100
AcDbEntity
  8
DIM34
100
AcDbMText
 10
472.9687293712152
 20
135.1662049221615
 30
0.0
 40
3.0
 41
0.0
 71
     5
 72
     1
  1
\A1;100.00
 73
     1
 44
1.0
  0
POINT
  5
3A76
330
3A6D
100
AcDbEntity
  8
DEFPOINTS
 62
     0
100
AcDbPoint
 10
422.9687293712152
 20
119.2469700749636
 30
0.0
  0
POINT
  5
3A77
330
3A6D
100
AcDbEntity
  8
DEFPOINTS
 62
     0
100
AcDbPoint
 10
522.9687293712152
 20
119.2469700749636
 30
0.0
  0
POINT
  5
3A78
330
3A6D
100
AcDbEntity
  8
DEFPOINTS
 62
     0
100
AcDbPoint
 10
522.9687293712152
 20
130.6662049221615
 30
0.0
  0
ENDBLK
  5
3A6F
330
3A6D
100
AcDbEntity
  8
0
100
AcDbBlockEnd
  0
BLOCK
  5
3AE8
330
3AE7
100
AcDbEntity
  8
0
100
AcDbBlockBegin
  2
*D20
 70
     1
 10
0.0
 20
0.0
 30
0.0
  3
*D20
  1
*D20
  0
LINE
  5
3AEA
330
3AE7
100
AcDbEntity
  8
DIM34
370
    -2
100
AcDbLine
 10
362.8950206260496
 20
364.7849164270017
 30
0.0
 11
362.8950206260496
 21
378.2405527966405
 31
0.0
  0
LINE
  5
3AEB
330
3AE7
100
AcDbEntity
  8
DIM34
370
    -2
100
AcDbLine
 10
337.8808570944526
 20
364.7849164270019
 30
0.0
 11
337.8808570944526
 21
378.2405527966405
 31
0.0
  0
LINE
  5
3AEC
330
3AE7
100
AcDbEntity
  8
DIM34
370
    -2
100
AcDbLine
 10
359.8950206260496
 20
375.7405527966405
 30
0.0
 11
340.8808570944526
 21
375.7405527966405
 31
0.0
  0
SOLID
  5
3AED
330
3AE7
100
AcDbEntity
  8
DIM34
100
AcDbTrace
 10
359.8950206260496
 20
375.2405527966405
 30
0.0
 11
359.8950206260496
 21
376.2405527966405
 31
0.0
 12
362.8950206260496
 22
375.7405527966405
 32
0.0
 13
362.8950206260496
 23
375.7405527966405
 33
0.0
  0
SOLID
  5
3AEE
330
3AE7
100
AcDbEntity
  8
DIM34
100
AcDbTrace
 10
340.8808570944526
 20
376.2405527966405
 30
0.0
 11
340.8808570944526
 21
375.2405527966405
 31
0.0
 12
337.8808570944526
 22
375.7405527966405
 32
0.0
 13
337.8808570944526
 23
375.7405527966405
 33
0.0
  0
MTEXT
  5
3AEF
330
3AE7
100
AcDbEntity
  8
DIM34
100
AcDbMText
 10
350.3879388602511
 20
380.2405527966405
 30
0.0
 40
3.0
 41
0.0
 71
     5
 72
     1
  1
\A1;25.01
 73
     1
 44
1.0
  0
POINT
  5
3AF0
330
3AE7
100
AcDbEntity
  8
DEFPOINTS
 62
     0
100
AcDbPoint
 10
362.8950206260496
 20
362.2849164270017
 30
0.0
  0
POINT
  5
3AF1
330
3AE7
100
AcDbEntity
  8
DEFPOINTS
 62
     0
100
AcDbPoint
 10
337.8808570944526
 20
362.2849164270019
 30
0.0
  0
POINT
  5
3AF2
330
3AE7
100
AcDbEntity
  8
DEFPOINTS
 62
     0
100
AcDbPoint
 10
337.8808570944526
 20
375.7405527966405
 30
0.0
  0
ENDBLK
  5
3AE9
330
3AE7
100
AcDbEntity
  8
0
100
AcDbBlockEnd
  0
BLOCK
  5
3AF5
330
3AF4
100
AcDbEntity
  8
0
100
AcDbBlockBegin
  2
*D21
 70
     1
 10
0.0
 20
0.0
 30
0.0
  3
*D21
  1
*D21
  0
LINE
  5
3AF7
330
3AF4
100
AcDbEntity
  8
DIM34
370
    -2
100
AcDbLine
 10
337.8808570944526
 20
364.7849164270019
 30
0.0
 11
337.8808570944526
 21
378.2405527966405
 31
0.0
  0
LINE
  5
3AF8
330
3AF4
100
AcDbEntity
  8
DIM34
370
    -2
100
AcDbLine
 10
277.8808570944526
 20
364.7849164270019
 30
0.0
 11
277.8808570944526
 21
378.2405527966405
 31
0.0
  0
LINE
  5
3AF9
330
3AF4
100
AcDbEntity
  8
DIM34
370
    -2
100
AcDbLine
 10
334.8808570944526
 20
375.7405527966405
 30
0.0
 11
280.8808570944526
 21
375.7405527966405
 31
0.0
  0
SOLID
  5
3AFA
330
3AF4
100
AcDbEntity
  8
DIM34
100
AcDbTrace
 10
334.8808570944526
 20
375.2405527966405
 30
0.0
 11
334.8808570944526
 21
376.2405527966405
 31
0.0
 12
337.8808570944526
 22
375.7405527966405
 32
0.0
 13
337.8808570944526
 23
375.7405527966405
 33
0.0
  0
SOLID
  5
3AFB
330
3AF4
100
AcDbEntity
  8
DIM34
100
AcDbTrace
 10
280.8808570944526
 20
376.2405527966405
 30
0.0
 11
280.8808570944526
 21
375.2405527966405
 31
0.0
 12
277.8808570944526
 22
375.7405527966405
 32
0.0
 13
277.8808570944526
 23
375.7405527966405
 33
0.0
  0
MTEXT
  5
3AFC
330
3AF4
100
AcDbEntity
  8
DIM34
100
AcDbMText
 10
307.8808570944526
 20
380.2405527966405
 30
0.0
 40
3.0
 41
0.0
 71
     5
 72
     1
  1
\A1;60.00
 73
     1
 44
1.0
  0
POINT
  5
3AFD
330
3AF4
100
AcDbEntity
  8
DEFPOINTS
 62
     0
100
AcDbPoint
 10
337.8808570944526
 20
362.2849164270019
 30
0.0
  0
POINT
  5
3AFE
330
3AF4
100
AcDbEntity
  8
DEFPOINTS
 62
     0
100
AcDbPoint
 10
277.8808570944526
 20
362.2849164270019
 30
0.0
  0
POINT
  5
3AFF
330
3AF4
100
AcDbEntity
  8
DEFPOINTS
 62
     0
100
AcDbPoint
 10
277.8808570944526
 20
375.7405527966405
 30
0.0
  0
ENDBLK
  5
3AF6
330
3AF4
100
AcDbEntity
  8
0
100
AcDbBlockEnd
  0
BLOCK
  5
3B02
330
3B01
100
AcDbEntity
  8
0
100
AcDbBlockBegin
  2
*D22
 70
     1
 10
0.0
 20
0.0
 30
0.0
  3
*D22
  1
*D22
  0
LINE
  5
3B04
330
3B01
100
AcDbEntity
  8
DIM34
370
    -2
100
AcDbLine
 10
277.8808570944526
 20
364.7849164270019
 30
0.0
 11
277.8808570944526
 21
378.2405527966405
 31
0.0
  0
LINE
  5
3B05
330
3B01
100
AcDbEntity
  8
DIM34
370
    -2
100
AcDbLine
 10
217.8808570944526
 20
364.7849164270017
 30
0.0
 11
217.8808570944526
 21
378.2405527966405
 31
0.0
  0
LINE
  5
3B06
330
3B01
100
AcDbEntity
  8
DIM34
370
    -2
100
AcDbLine
 10
274.8808570944526
 20
375.7405527966405
 30
0.0
 11
220.8808570944526
 21
375.7405527966405
 31
0.0
  0
SOLID
  5
3B07
330
3B01
100
AcDbEntity
  8
DIM34
100
AcDbTrace
 10
274.8808570944526
 20
375.2405527966405
 30
0.0
 11
274.8808570944526
 21
376.2405527966405
 31
0.0
 12
277.8808570944526
 22
375.7405527966405
 32
0.0
 13
277.8808570944526
 23
375.7405527966405
 33
0.0
  0
SOLID
  5
3B08
330
3B01
100
AcDbEntity
  8
DIM34
100
AcDbTrace
 10
220.8808570944526
 20
376.2405527966405
 30
0.0
 11
220.8808570944526
 21
375.2405527966405
 31
0.0
 12
217.8808570944526
 22
375.7405527966405
 32
0.0
 13
217.8808570944526
 23
375.7405527966405
 33
0.0
  0
MTEXT
  5
3B09
330
3B01
100
AcDbEntity
  8
DIM34
100
AcDbMText
 10
247.8808570944526
 20
380.2405527966405
 30
0.0
 40
3.0
 41
0.0
 71
     5
 72
     1
  1
\A1;60.00
 73
     1
 44
1.0
  0
POINT
  5
3B0A
330
3B01
100
AcDbEntity
  8
DEFPOINTS
 62
     0
100
AcDbPoint
 10
277.8808570944526
 20
362.2849164270019
 30
0.0
  0
POINT
  5
3B0B
330
3B01
100
AcDbEntity
  8
DEFPOINTS
 62
     0
100
AcDbPoint
 10
217.8808570944526
 20
362.2849164270017
 30
0.0
  0
POINT
  5
3B0C
330
3B01
100
AcDbEntity
  8
DEFPOINTS
 62
     0
100
AcDbPoint
 10
217.8808570944526
 20
375.7405527966405
 30
0.0
  0
ENDBLK
  5
3B03
330
3B01
100
AcDbEntity
  8
0
100
AcDbBlockEnd
  0
BLOCK
  5
3B0F
330
3B0E
100
AcDbEntity
  8
0
100
AcDbBlockBegin
  2
*D23
 70
     1
 10
0.0
 20
0.0
 30
0.0
  3
*D23
  1
*D23
  0
LINE
  5
3B11
330
3B0E
100
AcDbEntity
  8
DIM34
370
    -2
100
AcDbLine
 10
217.8808570944526
 20
364.7849164270017
 30
0.0
 11
217.8808570944526
 21
378.2405527966405
 31
0.0
  0
LINE
  5
3B12
330
3B0E
100
AcDbEntity
  8
DIM34
370
    -2
100
AcDbLine
 10
157.8808570944526
 20
364.7849164270018
 30
0.0
 11
157.8808570944526
 21
378.2405527966405
 31
0.0
  0
LINE
  5
3B13
330
3B0E
100
AcDbEntity
  8
DIM34
370
    -2
100
AcDbLine
 10
214.8808570944526
 20
375.7405527966405
 30
0.0
 11
160.8808570944526
 21
375.7405527966405
 31
0.0
  0
SOLID
  5
3B14
330
3B0E
100
AcDbEntity
  8
DIM34
100
AcDbTrace
 10
214.8808570944526
 20
375.2405527966405
 30
0.0
 11
214.8808570944526
 21
376.2405527966405
 31
0.0
 12
217.8808570944526
 22
375.7405527966405
 32
0.0
 13
217.8808570944526
 23
375.7405527966405
 33
0.0
  0
SOLID
  5
3B15
330
3B0E
100
AcDbEntity
  8
DIM34
100
AcDbTrace
 10
160.8808570944526
 20
376.2405527966405
 30
0.0
 11
160.8808570944526
 21
375.2405527966405
 31
0.0
 12
157.8808570944526
 22
375.7405527966405
 32
0.0
 13
157.8808570944526
 23
375.7405527966405
 33
0.0
  0
MTEXT
  5
3B16
330
3B0E
100
AcDbEntity
  8
DIM34
100
AcDbMText
 10
187.8808570944526
 20
380.2405527966405
 30
0.0
 40
3.0
 41
0.0
 71
     5
 72
     1
  1
\A1;60.00
 73
     1
 44
1.0
  0
POINT
  5
3B17
330
3B0E
100
AcDbEntity
  8
DEFPOINTS
 62
     0
100
AcDbPoint
 10
217.8808570944526
 20
362.2849164270017
 30
0.0
  0
POINT
  5
3B18
330
3B0E
100
AcDbEntity
  8
DEFPOINTS
 62
     0
100
AcDbPoint
 10
157.8808570944526
 20
362.2849164270018
 30
0.0
  0
POINT
  5
3B19
330
3B0E
100
AcDbEntity
  8
DEFPOINTS
 62
     0
100
AcDbPoint
 10
157.8808570944526
 20
375.7405527966405
 30
0.0
  0
ENDBLK
  5
3B10
330
3B0E
100
AcDbEntity
  8
0
100
AcDbBlockEnd
  0
BLOCK
  5
3B1C
330
3B1B
100
AcDbEntity
  8
0
100
AcDbBlockBegin
  2
*D24
 70
     1
 10
0.0
 20
0.0
 30
0.0
  3
*D24
  1
*D24
  0
LINE
  5
3B1E
330
3B1B
100
AcDbEntity
  8
DIM34
370
    -2
100
AcDbLine
 10
157.8808570944526
 20
364.7849164270018
 30
0.0
 11
157.8808570944526
 21
378.2405527966405
 31
0.0
  0
LINE
  5
3B1F
330
3B1B
100
AcDbEntity
  8
DIM34
370
    -2
100
AcDbLine
 10
97.8808570944526
 20
364.7849164270019
 30
0.0
 11
97.8808570944526
 21
378.2405527966405
 31
0.0
  0
LINE
  5
3B20
330
3B1B
100
AcDbEntity
  8
DIM34
370
    -2
100
AcDbLine
 10
154.8808570944526
 20
375.7405527966405
 30
0.0
 11
100.8808570944526
 21
375.7405527966405
 31
0.0
  0
SOLID
  5
3B21
330
3B1B
100
AcDbEntity
  8
DIM34
100
AcDbTrace
 10
154.8808570944526
 20
375.2405527966405
 30
0.0
 11
154.8808570944526
 21
376.2405527966405
 31
0.0
 12
157.8808570944526
 22
375.7405527966405
 32
0.0
 13
157.8808570944526
 23
375.7405527966405
 33
0.0
  0
SOLID
  5
3B22
330
3B1B
100
AcDbEntity
  8
DIM34
100
AcDbTrace
 10
100.8808570944526
 20
376.2405527966405
 30
0.0
 11
100.8808570944526
 21
375.2405527966405
 31
0.0
 12
97.8808570944526
 22
375.7405527966405
 32
0.0
 13
97.8808570944526
 23
375.7405527966405
 33
0.0
  0
MTEXT
  5
3B23
330
3B1B
100
AcDbEntity
  8
DIM34
100
AcDbMText
 10
127.8808570944526
 20
380.2405527966405
 30
0.0
 40
3.0
 41
0.0
 71
     5
 72
     1
  1
\A1;60.00
 73
     1
 44
1.0
  0
POINT
  5
3B24
330
3B1B
100
AcDbEntity
  8
DEFPOINTS
 62
     0
100
AcDbPoint
 10
157.8808570944526
 20
362.2849164270018
 30
0.0
  0
POINT
  5
3B25
330
3B1B
100
AcDbEntity
  8
DEFPOINTS
 62
     0
100
AcDbPoint
 10
97.8808570944526
 20
362.2849164270019
 30
0.0
  0
POINT
  5
3B26
330
3B1B
100
AcDbEntity
  8
DEFPOINTS
 62
     0
100
AcDbPoint
 10
97.8808570944526
 20
375.7405527966405
 30
0.0
  0
ENDBLK
  5
3B1D
330
3B1B
100
AcDbEntity
  8
0
100
AcDbBlockEnd
  0
BLOCK
  5
3B29
330
3B28
100
AcDbEntity
  8
0
100
AcDbBlockBegin
  2
*D25
 70
     1
 10
0.0
 20
0.0
 30
0.0
  3
*D25
  1
*D25
  0
LINE
  5
3B2B
330
3B28
100
AcDbEntity
  8
DIM34
370
    -2
100
AcDbLine
 10
97.8808570944526
 20
364.7849164270019
 30
0.0
 11
97.8808570944526
 21
378.2405527966405
 31
0.0
  0
LINE
  5
3B2C
330
3B28
100
AcDbEntity
  8
DIM34
370
    -2
100
AcDbLine
 10
37.88085709445252
 20
364.7849164270019
 30
0.0
 11
37.88085709445252
 21
378.2405527966405
 31
0.0
  0
LINE
  5
3B2D
330
3B28
100
AcDbEntity
  8
DIM34
370
    -2
100
AcDbLine
 10
94.8808570944526
 20
375.7405527966405
 30
0.0
 11
40.88085709445252
 21
375.7405527966405
 31
0.0
  0
SOLID
  5
3B2E
330
3B28
100
AcDbEntity
  8
DIM34
100
AcDbTrace
 10
94.8808570944526
 20
375.2405527966405
 30
0.0
 11
94.8808570944526
 21
376.2405527966405
 31
0.0
 12
97.8808570944526
 22
375.7405527966405
 32
0.0
 13
97.8808570944526
 23
375.7405527966405
 33
0.0
  0
SOLID
  5
3B2F
330
3B28
100
AcDbEntity
  8
DIM34
100
AcDbTrace
 10
40.88085709445252
 20
376.2405527966405
 30
0.0
 11
40.88085709445252
 21
375.2405527966405
 31
0.0
 12
37.88085709445252
 22
375.7405527966405
 32
0.0
 13
37.88085709445252
 23
375.7405527966405
 33
0.0
  0
MTEXT
  5
3B30
330
3B28
100
AcDbEntity
  8
DIM34
100
AcDbMText
 10
67.88085709445255
 20
380.2405527966405
 30
0.0
 40
3.0
 41
0.0
 71
     5
 72
     1
  1
\A1;60.00
 73
     1
 44
1.0
  0
POINT
  5
3B31
330
3B28
100
AcDbEntity
  8
DEFPOINTS
 62
     0
100
AcDbPoint
 10
97.8808570944526
 20
362.2849164270019
 30
0.0
  0
POINT
  5
3B32
330
3B28
100
AcDbEntity
  8
DEFPOINTS
 62
     0
100
AcDbPoint
 10
37.88085709445252
 20
362.2849164270019
 30
0.0
  0
POINT
  5
3B33
330
3B28
100
AcDbEntity
  8
DEFPOINTS
 62
     0
100
AcDbPoint
 10
37.88085709445252
 20
375.7405527966405
 30
0.0
  0
ENDBLK
  5
3B2A
330
3B28
100
AcDbEntity
  8
0
100
AcDbBlockEnd
  0
BLOCK
  5
3B36
330
3B35
100
AcDbEntity
  8
0
100
AcDbBlockBegin
  2
*D26
 70
     1
 10
0.0
 20
0.0
 30
0.0
  3
*D26
  1
*D26
  0
LINE
  5
3B38
330
3B35
100
AcDbEntity
  8
DIM34
370
    -2
100
AcDbLine
 10
37.88085709445252
 20
364.7849164270019
 30
0.0
 11
37.88085709445252
 21
378.2405527966405
 31
0.0
  0
LINE
  5
3B39
330
3B35
100
AcDbEntity
  8
DIM34
370
    -2
100
AcDbLine
 10
31.3718949963324
 20
364.7849164270019
 30
0.0
 11
31.3718949963324
 21
378.2405527966405
 31
0.0
  0
LINE
  5
3B3A
330
3B35
100
AcDbEntity
  8
DIM34
370
    -2
100
AcDbLine
 10
31.3718949963324
 20
375.7405527966405
 30
0.0
 11
28.3718949963324
 21
375.7405527966405
 31
0.0
  0
LINE
  5
3B3B
330
3B35
100
AcDbEntity
  8
DIM34
370
    -2
100
AcDbLine
 10
34.88085709445252
 20
375.7405527966405
 30
0.0
 11
34.3718949963324
 21
375.7405527966405
 31
0.0
  0
SOLID
  5
3B3C
330
3B35
100
AcDbEntity
  8
DIM34
100
AcDbTrace
 10
34.88085709445252
 20
375.2405527966405
 30
0.0
 11
34.88085709445252
 21
376.2405527966405
 31
0.0
 12
37.88085709445252
 22
375.7405527966405
 32
0.0
 13
37.88085709445252
 23
375.7405527966405
 33
0.0
  0
SOLID
  5
3B3D
330
3B35
100
AcDbEntity
  8
DIM34
100
AcDbTrace
 10
34.3718949963324
 20
376.2405527966405
 30
0.0
 11
34.3718949963324
 21
375.2405527966405
 31
0.0
 12
31.3718949963324
 22
375.7405527966405
 32
0.0
 13
31.3718949963324
 23
375.7405527966405
 33
0.0
  0
MTEXT
  5
3B3E
330
3B35
100
AcDbEntity
  8
DIM34
100
AcDbMText
 10
24.35109142490383
 20
375.7405527966405
 30
0.0
 40
3.0
 41
0.0
 71
     5
 72
     1
  1
\A1;6.51
 73
     1
 44
1.0
  0
POINT
  5
3B3F
330
3B35
100
AcDbEntity
  8
DEFPOINTS
 62
     0
100
AcDbPoint
 10
37.88085709445252
 20
362.2849164270019
 30
0.0
  0
POINT
  5
3B40
330
3B35
100
AcDbEntity
  8
DEFPOINTS
 62
     0
100
AcDbPoint
 10
31.3718949963324
 20
362.2849164270019
 30
0.0
  0
POINT
  5
3B41
330
3B35
100
AcDbEntity
  8
DEFPOINTS
 62
     0
100
AcDbPoint
 10
31.3718949963324
 20
375.7405527966405
 30
0.0
  0
ENDBLK
  5
3B37
330
3B35
100
AcDbEntity
  8
0
100
AcDbBlockEnd
  0
ENDSEC
  0
SECTION
  2
ENTITIES
  0
INSERT
  5
5D
330
19
100
AcDbEntity
  8
0
100
AcDbBlockReference
 66
     1
  2
REG
 10
0.0
 20
0.0
 30
0.0
  0
ATTRIB
  5
5E
330
5D
100
AcDbEntity
  8
TEXT
100
AcDbText
 10
820.0
 20
115.0
 30
0.0
 40
3.0
  1

  7
EN1
100
AcDbAttribute
  2
R01
 70
     1
  0
ATTRIB
  5
5F
330
5D
100
AcDbEntity
  8
TEXT
100
AcDbText
 10
755.0
 20
39.0
 30
0.0
 40
3.0
  1

  7
EN1
100
AcDbAttribute
  2
R02
 70
     0
  0
ATTRIB
  5
60
330
5D
100
AcDbEntity
  8
TEXT
100
AcDbText
 10
820.0
 20
105.0
 30
0.0
 40
3.0
  1

  7
EN1
100
AcDbAttribute
  2
R03
 70
     1
  0
ATTRIB
  5
61
330
5D
100
AcDbEntity
  8
TEXT
100
AcDbText
 10
755.0
 20
30.0
 30
0.0
 40
3.0
  1

  7
EN1
100
AcDbAttribute
  2
R05
 70
     0
  0
ATTRIB
  5
62
330
5D
100
AcDbEntity
  8
TEXT
100
AcDbText
 10
820.0
 20
90.0
 30
0.0
 40
3.0
  1

  7
EN1
100
AcDbAttribute
  2
R06
 70
     1
  0
ATTRIB
  5
63
330
5D
100
AcDbEntity
  8
TEXT
100
AcDbText
 10
820.0
 20
85.0
 30
0.0
 40
3.0
  1

  7
EN1
100
AcDbAttribute
  2
R07
 70
     1
  0
ATTRIB
  5
64
330
5D
100
AcDbEntity
  8
TEXT
100
AcDbText
 10
683.0
 20
30.0
 30
0.0
 40
3.0
  1

  7
EN1
100
AcDbAttribute
  2
R08
 70
     0
  0
ATTRIB
  5
65
330
5D
100
AcDbEntity
  8
TEXT
100
AcDbText
 10
788.0
 20
30.0
 30
0.0
 40
3.0
  1

  7
EN1
100
AcDbAttribute
  2
R10
 70
     0
  0
ATTRIB
  5
66
330
5D
100
AcDbEntity
  8
TEXT
100
AcDbText
 10
788.0
 20
39.0
 30
0.0
 40
3.0
  1

  7
EN1
100
AcDbAttribute
  2
R11
 70
     0
  0
ATTRIB
  5
67
330
5D
100
AcDbEntity
  8
TEXT
100
AcDbText
 10
820.0
 20
60.0
 30
0.0
 40
3.0
  1

  7
EN1
100
AcDbAttribute
  2
R12
 70
     1
  0
ATTRIB
  5
68
330
5D
100
AcDbEntity
  8
TEXT
100
AcDbText
 10
820.0
 20
54.0
 30
0.0
 40
3.0
  1

  7
EN1
100
AcDbAttribute
  2
R13
 70
     1
  0
ATTRIB
  5
69
330
5D
100
AcDbEntity
  8
TEXT
100
AcDbText
 10
683.0
 20
39.0
 30
0.0
 40
3.0
  1

  7
EN1
100
AcDbAttribute
  2
R14
 70
     0
  0
ATTRIB
  5
6A
330
5D
100
AcDbEntity
  8
TEXT
100
AcDbText
 10
820.0
 20
45.0
 30
0.0
 40
3.0
  1

  7
EN1
100
AcDbAttribute
  2
R15
 70
     1
  0
ATTRIB
  5
6B
330
5D
100
AcDbEntity
  8
TEXT
100
AcDbText
 10
820.0
 20
40.0
 30
0.0
 40
3.0
  1

  7
EN1
100
AcDbAttribute
  2
R16
 70
     1
  0
ATTRIB
  5
6C
330
5D
100
AcDbEntity
  8
TEXT
100
AcDbText
 10
683.0
 20
57.0
 30
0.0
 40
3.0
  1

  7
EN1
100
AcDbAttribute
  2
R17
 70
     0
  0
ATTRIB
  5
6D
330
5D
100
AcDbEntity
  8
TEXT
100
AcDbText
 10
683.0
 20
48.0
 30
0.0
 40
3.0
  1

  7
EN1
100
AcDbAttribute
  2
R18
 70
     0
  0
ATTRIB
  5
6E
330
5D
100
AcDbEntity
  8
TEXT
100
AcDbText
 10
820.0
 20
25.0
 30
0.0
 40
3.0
  1

  7
EN1
100
AcDbAttribute
  2
R19
 70
     1
  0
ATTRIB
  5
6F
330
5D
100
AcDbEntity
  8
TEXT
100
AcDbText
 10
820.0
 20
20.0
 30
0.0
 40
3.0
  1

  7
EN1
100
AcDbAttribute
  2
R20
 70
     1
  0
SEQEND
  5
70
330
5D
100
AcDbEntity
  8
0
  0
INSERT
  5
71
330
19
100
AcDbEntity
  8
TXT52
100
AcDbBlockReference
 66
     1
  2
MOD
 10
646.8131149585557
 20
16.41227289581082
 30
0.0
  0
ATTRIB
  5
72
330
71
100
AcDbEntity
  8
TEXT
100
AcDbText
 10
508.8131149585557
 20
16.41227289581082
 30
0.0
 40
3.0
  1

  7
EN1
100
AcDbAttribute
  2
M01
 70
     0
  0
ATTRIB
  5
73
330
71
100
AcDbEntity
  8
TEXT
100
AcDbText
 10
493.8131149585557
 20
16.41227289581082
 30
0.0
 40
3.0
  1

  7
EN1
100
AcDbAttribute
  2
M02
 70
     0
  0
ATTRIB
  5
74
330
71
100
AcDbEntity
  8
TEXT
100
AcDbText
 10
541.8131149585557
 20
16.41227289581082
 30
0.0
 40
3.0
  1

  7
EN1
100
AcDbAttribute
  2
M03
 70
     0
  0
ATTRIB
  5
75
330
71
100
AcDbEntity
  8
TEXT
100
AcDbText
 10
607.8131149585557
 20
16.41227289581082
 30
0.0
 40
3.0
  1

  7
EN1
100
AcDbAttribute
  2
M04
 70
     0
  0
ATTRIB
  5
76
330
71
100
AcDbEntity
  8
TEXT
100
AcDbText
 10
631.8131149585557
 20
16.41227289581082
 30
0.0
 40
3.0
  1

  7
EN1
100
AcDbAttribute
  2
M05
 70
     0
  0
ATTRIB
  5
77
330
71
100
AcDbEntity
  8
TEXT
100
AcDbText
 10
487.8131149585557
 20
19.41227289581082
 30
0.0
 40
3.0
  1

 50
180.0
  7
EN1
100
AcDbAttribute
  2
M06
 70
     0
  0
SEQEND
  5
78
330
71
100
AcDbEntity
  8
TXT52
  0
INSERT
  5
79
330
19
100
AcDbEntity
  8
TXT52
100
AcDbBlockReference
 66
     1
  2
REG
 10
0.0
 20
0.0
 30
0.0
  0
ATTRIB
  5
7A
330
79
100
AcDbEntity
  8
TXT52
100
AcDbText
 10
792.0
 20
80.0
 30
0.0
 40
3.0
  1

100
AcDbAttribute
  2
R01
 70
     1
  0
ATTRIB
  5
7B
330
79
100
AcDbEntity
  8
TXT52
100
AcDbText
 10
738.0
 20
32.0
 30
0.0
 40
3.0
  1

100
AcDbAttribute
  2
R02
 70
     0
  0
ATTRIB
  5
7C
330
79
100
AcDbEntity
  8
TXT52
100
AcDbText
 10
792.0
 20
74.0
 30
0.0
 40
3.0
  1

100
AcDbAttribute
  2
R03
 70
     1
  0
ATTRIB
  5
7D
330
79
100
AcDbEntity
  8
TXT52
100
AcDbText
 10
736.0
 20
12.74375231739021
 30
0.0
 40
3.0
  1

100
AcDbAttribute
  2
R05
 70
     0
  0
ATTRIB
  5
7E
330
79
100
AcDbEntity
  8
TXT52
100
AcDbText
 10
792.0
 20
68.0
 30
0.0
 40
3.0
  1

100
AcDbAttribute
  2
R06
 70
     1
  0
ATTRIB
  5
7F
330
79
100
AcDbEntity
  8
TXT52
100
AcDbText
 10
682.0
 20
28.0
 30
0.0
 40
4.0
  1

100
AcDbAttribute
  2
R07
 70
     0
  0
ATTRIB
  5
80
330
79
100
AcDbEntity
  8
TXT52
100
AcDbText
 10
792.0
 20
62.0
 30
0.0
 40
3.0
  1

100
AcDbAttribute
  2
R08
 70
     1
  0
ATTRIB
  5
81
330
79
100
AcDbEntity
  8
TXT52
100
AcDbText
 10
392.0
 20
14.0
 30
0.0
 40
3.0
  1

100
AcDbAttribute
  2
R10
 70
     0
  0
ATTRIB
  5
82
330
79
100
AcDbEntity
  8
TXT52
100
AcDbText
 10
736.0
 20
20.0
 30
0.0
 40
3.0
  1

100
AcDbAttribute
  2
R11
 70
     0
  0
ATTRIB
  5
83
330
79
100
AcDbEntity
  8
TXT52
100
AcDbText
 10
416.0
 20
24.0
 30
0.0
 40
3.0
  1

100
AcDbAttribute
  2
R12
 70
     0
  0
ATTRIB
  5
84
330
79
100
AcDbEntity
  8
TXT52
100
AcDbText
 10
792.0
 20
56.0
 30
0.0
 40
3.0
  1

100
AcDbAttribute
  2
R13
 70
     1
  0
ATTRIB
  5
85
330
79
100
AcDbEntity
  8
TXT52
100
AcDbText
 10
674.0
 20
28.0
 30
0.0
 40
4.0
  1

100
AcDbAttribute
  2
R14
 70
     0
  0
ATTRIB
  5
86
330
79
100
AcDbEntity
  8
TXT52
100
AcDbText
 10
792.0
 20
50.0
 30
0.0
 40
3.0
  1

100
AcDbAttribute
  2
R15
 70
     1
  0
ATTRIB
  5
87
330
79
100
AcDbEntity
  8
TXT52
100
AcDbText
 10
758.0
 20
28.0
 30
0.0
 40
3.0
  1

100
AcDbAttribute
  2
R16
 70
     0
  0
ATTRIB
  5
88
330
79
100
AcDbEntity
  8
TXT52
100
AcDbText
 10
662.0
 20
42.0
 30
0.0
 40
4.0
  1

100
AcDbAttribute
  2
R17
 70
     0
  0
ATTRIB
  5
89
330
79
100
AcDbEntity
  8
TXT52
100
AcDbText
 10
668.0
 20
20.0
 30
0.0
 40
3.0
  1

100
AcDbAttribute
  2
R18
 70
     0
  0
ATTRIB
  5
8A
330
79
100
AcDbEntity
  8
TXT52
100
AcDbText
 10
668.0
 20
12.0
 30
0.0
 40
3.0
  1

100
AcDbAttribute
  2
R19
 70
     0
  0
SEQEND
  5
8B
330
79
100
AcDbEntity
  8
TXT52
  0
INSERT
  5
8C
330
19
100
AcDbEntity
  8
TXT52
100
AcDbBlockReference
 66
     1
  2
MOD
 10
647.0393462365646
 20
16.43113189136369
 30
0.0
  0
ATTRIB
  5
8D
330
8C
100
AcDbEntity
  8
TXT52
100
AcDbText
 10
521.9459648859726
 20
17.16483600704781
 30
0.0
 40
3.0
  1

100
AcDbAttribute
  2
M01
 70
     0
  0
ATTRIB
  5
8E
330
8C
100
AcDbEntity
  8
TXT52
100
AcDbText
 10
511.8577889706022
 20
17.34826203596884
 30
0.0
 40
3.0
  1

100
AcDbAttribute
  2
M02
 70
     0
  0
ATTRIB
  5
8F
330
8C
100
AcDbEntity
  8
TXT52
100
AcDbText
 10
551.2933857306862
 20
17.34826203596884
 30
0.0
 40
3.0
  1

100
AcDbAttribute
  2
M03
 70
     0
  0
ATTRIB
  5
90
330
8C
100
AcDbEntity
  8
TXT52
100
AcDbText
 10
615.4908688284974
 20
17.16483600704781
 30
0.0
 40
3.0
  1

100
AcDbAttribute
  2
M04
 70
     0
  0
ATTRIB
  5
91
330
8C
100
AcDbEntity
  8
TXT52
100
AcDbText
 10
635.300377898679
 20
17.16483600704781
 30
0.0
 40
3.0
  1

100
AcDbAttribute
  2
M05
 70
     0
  0
ATTRIB
  5
92
330
8C
100
AcDbEntity
  8
TXT52
100
AcDbText
 10
553.8612850545986
 20
3.041031780128447
 30
0.0
 40
3.0
  1

100
AcDbAttribute
  2
M06
 70
     1
  0
SEQEND
  5
93
330
8C
100
AcDbEntity
  8
TXT52
  0
INSERT
  5
94
330
19
100
AcDbEntity
  8
TXT52
100
AcDbBlockReference
 66
     1
  2
MOD
 10
647.0393462365646
 20
16.43113189136369
 30
0.0
  0
ATTRIB
  5
95
330
94
100
AcDbEntity
  8
TXT52
100
AcDbText
 10
510.9588464242096
 20
17.13180756396061
 30
0.0
 40
3.0
  1

100
AcDbAttribute
  2
M01
 70
     0
  0
ATTRIB
  5
96
330
94
100
AcDbEntity
  8
TXT52
100
AcDbText
 10
505.5638401923366
 20
17.13180756396061
 30
0.0
 40
3.0
  1

 72
     1
 11
505.5638401923366
 21
17.13180756396061
 31
0.0
100
AcDbAttribute
  2
M02
 70
     0
  0
ATTRIB
  5
97
330
94
100
AcDbEntity
  8
TXT52
100
AcDbText
 10
544.2280515207592
 20
17.13180756396061
 30
0.0
 40
3.0
  1

100
AcDbAttribute
  2
M03
 70
     0
  0
ATTRIB
  5
98
330
94
100
AcDbEntity
  8
TXT52
100
AcDbText
 10
625.3863821467228
 20
17.13180756396061
 30
0.0
 40
3.0
  1

 72
     1
 11
625.3863821467228
 21
17.13180756396061
 31
0.0
100
AcDbAttribute
  2
M04
 70
     0
  0
ATTRIB
  5
99
330
94
100
AcDbEntity
  8
TXT52
100
AcDbText
 10
637.0755623157809
 20
17.13180756396061
 30
0.0
 40
3.0
  1

100
AcDbAttribute
  2
M05
 70
     0
  0
ATTRIB
  5
9A
330
94
100
AcDbEntity
  8
TXT52
100
AcDbText
 10
563.1849434143313
 20
3.18661475713756
 30
0.0
 40
3.0
  1

100
AcDbAttribute
  2
M06
 70
     1
  0
SEQEND
  5
9B
330
94
100
AcDbEntity
  8
TXT52
  0
TEXT
  5
9D
330
19
100
AcDbEntity
  8
TXT34
 62
     3
100
AcDbText
 10
233.8876811822981
 20
32.06777649915962
 30
0.0
 40
2.4745
  1
THIRD ANGLE PROJECTION. DIMS., IN mm
100
AcDbText
  0
POINT
  5
A8
330
19
100
AcDbEntity
  8
TXT34
100
AcDbPoint
 10
622.0
 20
39.0
 30
0.0
  0
POINT
  5
A9
330
19
100
AcDbEntity
  8
TXT34
100
AcDbPoint
 10
645.0
 20
29.0
 30
0.0
  0
POINT
  5
AA
330
19
100
AcDbEntity
  8
TXT34
100
AcDbPoint
 10
639.0
 20
20.0
 30
0.0
  0
POINT
  5
AB
330
19
100
AcDbEntity
  8
TXT34
100
AcDbPoint
 10
639.0
 20
12.0
 30
0.0
  0
POINT
  5
AC
330
19
100
AcDbEntity
  8
TXT34
100
AcDbPoint
 10
735.0
 20
20.0
 30
0.0
  0
POINT
  5
AD
330
19
100
AcDbEntity
  8
TXT34
100
AcDbPoint
 10
735.0
 20
11.0
 30
0.0
  0
POINT
  5
AE
330
19
100
AcDbEntity
  8
TXT34
100
AcDbPoint
 10
748.0
 20
48.0
 30
0.0
  0
POINT
  5
AF
330
19
100
AcDbEntity
  8
TXT34
100
AcDbPoint
 10
757.0
 20
28.0
 30
0.0
  0
POINT
  5
B0
330
19
100
AcDbEntity
  8
TXT34
100
AcDbPoint
 10
354.0
 20
14.0
 30
0.0
  0
POINT
  5
B1
330
19
100
AcDbEntity
  8
TXT34
100
AcDbPoint
 10
376.0
 20
25.0
 30
0.0
  0
POINT
  5
B2
330
19
100
AcDbEntity
  8
TXT34
100
AcDbPoint
 10
43.0
 20
553.0
 30
0.0
  0
POINT
  5
B3
330
19
100
AcDbEntity
  8
TXT34
100
AcDbPoint
 10
653.0
 20
29.0
 30
0.0
  0
POINT
  5
B4
330
19
100
AcDbEntity
  8
TXT34
100
AcDbPoint
 10
675.0
 20
29.0
 30
0.0
  0
LWPOLYLINE
  5
B5
330
19
100
AcDbEntity
  8
BOR715
 62
    15
100
AcDbPolyline
 90
        4
 70
     1
 43
0.0
 10
77.29281059253367
 20
402.9124181269017
 10
82.59000809253388
 20
404.1934280117799
 10
82.59000809253388
 20
398.8962305117797
 10
77.29281059253367
 20
400.1772403966585
  0
LWPOLYLINE
  5
BB
330
19
100
AcDbEntity
  8
BOR715
100
AcDbPolyline
 90
        4
 70
     0
 43
0.0
 10
12.80674569633007
 20
398.1732431919087
 10
69.14197618973577
 20
398.1732431919087
 10
83.4112592535703
 20
398.1732431919085
 10
83.41125925357014
 20
404.7059998628489
  0
LWPOLYLINE
  5
C1
330
19
100
AcDbEntity
  8
BOR715
 62
    15
100
AcDbPolyline
 90
        6
 70
     0
 43
0.0
 10
226.3973779398157
 20
15.85599986284902
 10
226.3973779398157
 20
30.31664579552097
 10
317.6561643868931
 20
30.31664579552097
 10
317.6561643868931
 20
54.01464560752276
 10
432.7890664963305
 20
54.01464560752276
 10
543.0567456963303
 20
54.01464560752276
  0
LINE
  5
C9
330
19
100
AcDbEntity
  8
BOR715
 62
    15
100
AcDbLine
 10
432.0820664963305
 20
28.91870954551535
 30
0.0
 11
432.7890664963305
 21
28.91870954551535
 31
0.0
  0
LINE
  5
CA
330
19
100
AcDbEntity
  8
BOR715
 62
    15
100
AcDbLine
 10
432.0820664963305
 20
33.17677329550973
 30
0.0
 11
432.7890664963305
 21
33.17677329550973
 31
0.0
  0
LINE
  5
CB
330
19
100
AcDbEntity
  8
BOR715
 62
    15
100
AcDbLine
 10
432.0820664963305
 20
37.43483704550411
 30
0.0
 11
432.7890664963305
 21
37.43483704550411
 31
0.0
  0
LINE
  5
CC
330
19
100
AcDbEntity
  8
BOR715
 62
    15
100
AcDbLine
 10
432.0820664963305
 20
41.6929007954985
 30
0.0
 11
432.7890664963305
 21
41.6929007954985
 31
0.0
  0
LINE
  5
CD
330
19
100
AcDbEntity
  8
BOR715
 62
    15
100
AcDbLine
 10
432.0820664963305
 20
45.95096454549288
 30
0.0
 11
432.7890664963305
 21
45.95096454549288
 31
0.0
  0
LINE
  5
CE
330
19
100
AcDbEntity
  8
BOR715
 62
    15
100
AcDbLine
 10
432.0820664963305
 20
50.20902829548722
 30
0.0
 11
432.7890664963305
 21
50.20902829548722
 31
0.0
  0
LINE
  5
CF
330
19
100
AcDbEntity
  8
BOR715
 62
    15
100
AcDbLine
 10
317.6561643868931
 20
50.20902829548722
 30
0.0
 11
318.3631643868931
 21
50.20902829548722
 31
0.0
  0
LINE
  5
D0
330
19
100
AcDbEntity
  8
BOR715
 62
    15
100
AcDbLine
 10
317.6561643868931
 20
45.95096454549288
 30
0.0
 11
318.3631643868931
 21
45.95096454549288
 31
0.0
  0
LINE
  5
D1
330
19
100
AcDbEntity
  8
BOR715
 62
    15
100
AcDbLine
 10
317.6561643868931
 20
41.6929007954985
 30
0.0
 11
318.3631643868931
 21
41.6929007954985
 31
0.0
  0
LINE
  5
D2
330
19
100
AcDbEntity
  8
BOR715
 62
    15
100
AcDbLine
 10
317.6561643868931
 20
37.43483704550411
 30
0.0
 11
318.3631643868931
 21
37.43483704550411
 31
0.0
  0
LINE
  5
D3
330
19
100
AcDbEntity
  8
BOR715
 62
    15
100
AcDbLine
 10
317.6561643868931
 20
33.17677329550973
 30
0.0
 11
318.3631643868931
 21
33.17677329550973
 31
0.0
  0
LINE
  5
D4
330
19
100
AcDbEntity
  8
BOR715
 62
    15
100
AcDbLine
 10
317.6561643868931
 20
28.91870954551535
 30
0.0
 11
318.3631643868931
 21
28.91870954551535
 31
0.0
  0
TEXT
  5
D5
330
19
100
AcDbEntity
  8
TXT34
 62
     3
100
AcDbText
 10
424.2025459553946
 20
17.1762078559054
 30
0.0
 40
1.9796
  1
APR'L
 72
     2
 11
432.2152126220612
 21
17.1762078559054
 31
0.0
100
AcDbText
  0
LINE
  5
D6
330
19
100
AcDbEntity
  8
BOR715
 62
    15
100
AcDbLine
 10
424.1974520515424
 20
54.01464560752275
 30
0.0
 11
424.1974520515424
 21
15.85599986284902
 31
0.0
  0
TEXT
  5
D7
330
19
100
AcDbEntity
  8
TXT34
 62
     3
100
AcDbText
 10
526.9355118673577
 20
42.70276406670143
 30
0.0
 40
2.121
  1
OF  SHTS
100
AcDbText
  0
TEXT
  5
D8
330
19
100
AcDbEntity
  8
TXT34
 62
     3
100
AcDbText
 10
515.6487212947657
 20
42.64715165381246
 30
0.0
 40
2.121
  1
SHT
100
AcDbText
  0
TEXT
  5
D9
330
19
100
AcDbEntity
  8
TXT34
 62
     3
100
AcDbText
 10
478.462830550736
 20
50.68880595714661
 30
0.0
 40
1.9796
  1
TEL 01327 843932
100
AcDbText
  0
TEXT
  5
DA
330
19
100
AcDbEntity
  8
TXT34
 62
     3
100
AcDbText
 10
445.5002348834797
 20
46.84554776861403
 30
0.0
 40
1.9796
  1
26 THE LEYS, LONG BUCKBY, NORTHAMPTON, NN6 7YD
100
AcDbText
  0
TEXT
  5
DB
330
19
100
AcDbEntity
  8
TXT34
 62
     3
100
AcDbText
 10
445.8404907251947
 20
50.56525261569296
 30
0.0
 40
2.121
  1
THE BOAT YARD
 51
15.0
  7
ITALICC
100
AcDbText
  0
TEXT
  5
DC
330
19
100
AcDbEntity
  8
TXT34
 62
     3
100
AcDbText
 10
228.2856832485903
 20
26.53215645556479
 30
0.0
 40
2.121
  1
INITIALLY USED ON
100
AcDbText
  0
TEXT
  5
DD
330
19
100
AcDbEntity
  8
TXT34
 62
     3
100
AcDbText
 10
13.45460919591804
 20
401.1523371638572
 30
0.0
 40
1.7675
  1
DWG No
100
AcDbText
  0
LINE
  5
DE
330
19
100
AcDbEntity
  8
BOR715
 62
    15
100
AcDbLine
 10
61.18563949609051
 20
398.1732431919087
 30
0.0
 11
61.18563949609043
 21
404.7059998628491
 31
0.0
  0
TEXT
  5
DF
330
19
100
AcDbEntity
  8
TXT34
 62
     3
100
AcDbText
 10
61.90500788367996
 20
398.7171037007988
 30
0.0
 40
1.7675
  1
A2
100
AcDbText
  0
TEXT
  5
E0
330
19
100
AcDbEntity
  8
TXT34
 62
     3
100
AcDbText
 10
61.90500788367996
 20
401.2740988370101
 30
0.0
 40
1.7675
  1
SIZE
100
AcDbText
  0
LINE
  5
E1
330
19
100
AcDbEntity
  8
BOR715
 62
    15
100
AcDbLine
 10
69.14197618973577
 20
398.1732431919087
 30
0.0
 11
69.1419761897356
 21
404.7059998628491
 31
0.0
  0
LINE
  5
E2
330
19
100
AcDbEntity
  8
BOR715
 62
    15
100
AcDbLine
 10
397.7264564646488
 20
15.85599986284902
 30
0.0
 11
397.7264564646488
 21
54.01464560752275
 31
0.0
  0
LINE
  5
E3
330
19
100
AcDbEntity
  8
BOR715
 62
    15
100
AcDbLine
 10
415.6058376067543
 20
15.85599986284902
 30
0.0
 11
415.6058376067543
 21
54.01464560752275
 31
0.0
  0
LINE
  5
E4
330
19
100
AcDbEntity
  8
BOR715
 62
    15
100
AcDbLine
 10
323.7775859990337
 20
15.85599986284902
 30
0.0
 11
323.7775859990337
 21
54.01464560752275
 31
0.0
  0
TEXT
  5
E5
330
19
100
AcDbEntity
  8
TXT34
 62
     3
100
AcDbText
 10
348.6242014219495
 20
17.1762078559054
 30
0.0
 40
1.9796
  1
CHANGE
100
AcDbText
  0
TEXT
  5
E6
330
19
100
AcDbEntity
  8
TXT34
 62
     3
100
AcDbText
 10
403.9006217361841
 20
17.1762078559054
 30
0.0
 40
1.9796
  1
DATE
100
AcDbText
  0
TEXT
  5
E7
330
19
100
AcDbEntity
  8
TXT34
 62
     3
100
AcDbText
 10
415.9879981772731
 20
17.1762078559054
 30
0.0
 40
1.9796
  1
NAME
 72
     2
 11
423.6235981772732
 21
17.1762078559054
 31
0.0
100
AcDbText
  0
LINE
  5
E8
330
19
100
AcDbEntity
  8
BOR715
 62
    15
100
AcDbLine
 10
226.3973779398157
 20
24.66064579552096
 30
0.0
 11
432.7890664963305
 21
24.66064579552096
 31
0.0
  0
TEXT
  5
E9
330
19
100
AcDbEntity
  8
TXT34
 62
     3
100
AcDbText
 10
318.4569795101308
 20
17.1762078559054
 30
0.0
 40
1.9796
  1
ISS
100
AcDbText
  0
LINE
  5
EA
330
19
100
AcDbEntity
  8
BOR715
 62
    15
100
AcDbLine
 10
520.5241203763521
 20
27.40196966380707
 30
0.0
 11
520.5241203763521
 21
34.76237146822096
 31
0.0
  0
TEXT
  5
EB
330
19
100
AcDbEntity
  8
TXT34
 62
     3
100
AcDbText
 10
522.1051300185972
 20
31.61066154839188
 30
0.0
 40
1.7675
  1
C.A.D. file ref
100
AcDbText
  0
CIRCLE
  5
EC
330
19
100
AcDbEntity
  8
TXT34
 62
     3
100
AcDbCircle
 10
230.6151867201557
 20
20.3557378893382
 30
0.0
 40
2.111215741522334
  0
TEXT
  5
ED
330
19
100
AcDbEntity
  8
TXT34
 62
     3
100
AcDbText
 10
229.5836115685916
 20
18.84358429715346
 30
0.0
 40
2.9694
  1
C
 72
     1
 11
230.6441115685916
 21
18.84358429715346
 31
0.0
100
AcDbText
  0
TEXT
  5
EE
330
19
100
AcDbEntity
  8
TXT34
 62
     3
100
AcDbText
 10
434.0911041364591
 20
22.86330480985799
 30
0.0
 40
2.4745
  1
MAT'L.
100
AcDbText
  0
TEXT
  5
EF
330
19
100
AcDbEntity
  8
TXT34
 62
     3
100
AcDbText
 10
434.0065204963303
 20
17.23259491843998
 30
0.0
 40
2.4745
  1
FINISH
100
AcDbText
  0
TEXT
  5
F0
330
19
100
AcDbEntity
  8
TXT34
 62
     3
100
AcDbText
 10
271.9285206785776
 20
19.03323404458007
 30
0.0
 40
2.4745
  1
THE BOAT YARD
100
AcDbText
  0
TEXT
  5
F1
330
19
100
AcDbEntity
  8
TXT34
 62
     3
100
AcDbText
 10
501.0218565037914
 20
22.87339482447975
 30
0.0
 40
2.4745
  1
SCALE
100
AcDbText
  0
LINE
  5
F2
330
19
100
AcDbEntity
  8
BOR715
 62
    15
100
AcDbLine
 10
500.2152030833863
 20
15.85599986284902
 30
0.0
 11
500.2152030833863
 21
27.40196966380707
 31
0.0
  0
TEXT
  5
F3
330
19
100
AcDbEntity
  8
TXT34
 62
     3
100
AcDbText
 10
433.6960753957537
 20
42.11269378276106
 30
0.0
 40
2.4745
  1
TITLE
100
AcDbText
  0
TEXT
  5
F4
330
19
100
AcDbEntity
  8
TXT34
 62
     3
100
AcDbText
 10
433.5725640839592
 20
29.2227934596434
 30
0.0
 40
2.4745
  1
DWG No.
100
AcDbText
  0
LINE
  5
F5
330
19
100
AcDbEntity
  8
BOR715
 62
    15
100
AcDbLine
 10
432.7890664963305
 20
15.85599986284902
 30
0.0
 11
432.7890664963305
 21
54.01464560752275
 31
0.0
  0
LINE
  5
F6
330
19
100
AcDbEntity
  8
BOR715
 62
    15
100
AcDbLine
 10
432.7890664963305
 20
45.68448880752308
 30
0.0
 11
543.0567456963302
 21
45.68448880752308
 31
0.0
  0
TEXT
  5
F7
330
19
100
AcDbEntity
  8
TXT34
 62
     3
100
AcDbText
 10
500.9256984570638
 20
16.54102854134177
 30
0.0
 40
2.4745
  1
DRAWN
100
AcDbText
  0
LINE
  5
F8
330
19
100
AcDbEntity
  8
BOR715
 62
    15
100
AcDbLine
 10
432.7890664963305
 20
34.76237146822096
 30
0.0
 11
543.0567456963302
 21
34.76237146822096
 31
0.0
  0
LINE
  5
F9
330
19
100
AcDbEntity
  8
BOR715
 62
    15
100
AcDbLine
 10
432.7890664963305
 20
21.89965353070959
 30
0.0
 11
543.0567456963302
 21
21.89965353070959
 31
0.0
  0
LINE
  5
FA
330
19
100
AcDbEntity
  8
BOR715
 62
    15
100
AcDbLine
 10
432.7890664963305
 20
27.40196966380707
 30
0.0
 11
543.0567456963302
 21
27.40196966380707
 31
0.0
  0
CIRCLE
  5
FB
330
19
100
AcDbEntity
  8
BOR715
 62
    15
100
AcDbCircle
 10
72.41725722459518
 20
401.5448292617798
 30
0.0
 40
2.648598750000001
  0
CIRCLE
  5
FC
330
19
100
AcDbEntity
  8
BOR715
 62
    15
100
AcDbCircle
 10
72.41725722459518
 20
401.5448292617798
 30
0.0
 40
1.367588865121541
  0
LINE
  5
FD
330
19
100
AcDbEntity
  8
BOR715
 62
    15
100
AcDbLine
 10
69.30990143993597
 20
401.5448292617798
 30
0.0
 11
75.52461300925437
 21
401.5448292617798
 31
0.0
  0
LINE
  5
FE
330
19
100
AcDbEntity
  8
BOR715
 62
    15
100
AcDbLine
 10
72.41725722459518
 20
398.4371400617803
 30
0.0
 11
72.41725722459518
 21
404.65251846178
 31
0.0
  0
LINE
  5
FF
330
19
100
AcDbEntity
  8
BOR715
 62
    15
100
AcDbLine
 10
76.83405355787514
 20
401.5448292617798
 30
0.0
 11
83.0487651271924
 21
401.5448292617798
 31
0.0
  0
LINE
  5
100
330
19
100
AcDbEntity
  8
BOR715
 62
    15
100
AcDbLine
 10
317.6561643868931
 20
30.31664579552097
 30
0.0
 11
317.6561643868931
 21
15.85599986284902
 31
0.0
  0
LINE
  5
101
330
19
100
AcDbEntity
  8
BOR715
 62
    15
100
AcDbLine
 10
317.6561643868931
 20
20.40258204552658
 30
0.0
 11
432.7890664963305
 21
20.40258204552658
 31
0.0
  0
LINE
  5
102
330
19
100
AcDbEntity
  8
BOR715
 62
    15
100
AcDbLine
 10
12.80674569633015
 20
15.8559998628491
 30
0.0
 11
543.0567456963302
 21
15.85599986284902
 31
0.0
  0
LINE
  5
103
330
19
100
AcDbEntity
  8
BOR715
 62
    15
100
AcDbLine
 10
543.0567456963304
 20
404.7059998628491
 30
0.0
 11
12.80674569633015
 21
404.7059998628491
 31
0.0
  0
LINE
  5
104
330
19
100
AcDbEntity
  8
BOR715
 62
    15
100
AcDbLine
 10
12.80674569633015
 20
404.7059998628491
 30
0.0
 11
12.80674569633015
 21
15.8559998628491
 31
0.0
  0
POINT
  5
105
330
19
100
AcDbEntity
  8
OUT57
100
AcDbPoint
 10
717.3126385442566
 20
560.0003225806458
 30
0.0
  0
POINT
  5
106
330
19
100
AcDbEntity
  8
OUT57
100
AcDbPoint
 10
659.620330851949
 20
560.0003225806458
 30
0.0
  0
POINT
  5
107
330
19
100
AcDbEntity
  8
OUT57
100
AcDbPoint
 10
601.9280231596413
 20
560.0003225806458
 30
0.0
  0
POINT
  5
108
330
19
100
AcDbEntity
  8
OUT57
100
AcDbPoint
 10
544.2357154673335
 20
560.0003225806458
 30
0.0
  0
POINT
  5
109
330
19
100
AcDbEntity
  8
OUT57
100
AcDbPoint
 10
486.5434077750258
 20
560.0003225806458
 30
0.0
  0
POINT
  5
10A
330
19
100
AcDbEntity
  8
OUT57
100
AcDbPoint
 10
428.8511000827181
 20
560.0003225806458
 30
0.0
  0
POINT
  5
10B
330
19
100
AcDbEntity
  8
OUT57
100
AcDbPoint
 10
371.1587923904103
 20
560.000322580646
 30
0.0
  0
POINT
  5
10C
330
19
100
AcDbEntity
  8
OUT57
100
AcDbPoint
 10
313.4664846981026
 20
560.000322580646
 30
0.0
  0
POINT
  5
10D
330
19
100
AcDbEntity
  8
OUT57
100
AcDbPoint
 10
255.7741770057948
 20
560.000322580646
 30
0.0
  0
POINT
  5
10E
330
19
100
AcDbEntity
  8
OUT57
100
AcDbPoint
 10
198.0818693134871
 20
560.000322580646
 30
0.0
  0
POINT
  5
10F
330
19
100
AcDbEntity
  8
OUT57
100
AcDbPoint
 10
140.3895616211794
 20
560.000322580646
 30
0.0
  0
POINT
  5
110
330
19
100
AcDbEntity
  8
OUT57
100
AcDbPoint
 10
82.69725392887165
 20
560.000322580646
 30
0.0
  0
LINE
  5
111
330
19
100
AcDbEntity
  8
BOR715
 62
    15
100
AcDbLine
 10
339.1144380040226
 20
404.7059998628491
 30
0.0
 11
339.1144380040226
 21
411.7759998628491
 31
0.0
  0
LINE
  5
112
330
19
100
AcDbEntity
  8
BOR715
 62
    15
100
AcDbLine
 10
298.325976465561
 20
404.7059998628491
 30
0.0
 11
298.325976465561
 21
411.7759998628491
 31
0.0
  0
LINE
  5
113
330
19
100
AcDbEntity
  8
BOR715
 62
    15
100
AcDbLine
 10
257.5375149270994
 20
404.7059998628491
 30
0.0
 11
257.5375149270994
 21
411.7759998628491
 31
0.0
  0
LINE
  5
114
330
19
100
AcDbEntity
  8
BOR715
 62
    15
100
AcDbLine
 10
216.7490533886379
 20
404.7059998628491
 30
0.0
 11
216.7490533886379
 21
411.7759998628491
 31
0.0
  0
LINE
  5
115
330
19
100
AcDbEntity
  8
BOR715
 62
    15
100
AcDbLine
 10
175.9605918501763
 20
404.7059998628491
 30
0.0
 11
175.9605918501763
 21
411.7759998628491
 31
0.0
  0
LINE
  5
116
330
19
100
AcDbEntity
  8
BOR715
 62
    15
100
AcDbLine
 10
135.1721303117147
 20
404.7059998628491
 30
0.0
 11
135.1721303117147
 21
411.7759998628491
 31
0.0
  0
LINE
  5
117
330
19
100
AcDbEntity
  8
BOR715
 62
    15
100
AcDbLine
 10
94.38366877325313
 20
404.7059998628491
 30
0.0
 11
94.38366877325313
 21
411.7759998628491
 31
0.0
  0
LINE
  5
118
330
19
100
AcDbEntity
  8
BOR715
 62
    15
100
AcDbLine
 10
53.59520723479157
 20
404.7059998628491
 30
0.0
 11
53.59520723479157
 21
411.7759998628491
 31
0.0
  0
LINE
  5
119
330
19
100
AcDbEntity
  8
BOR715
 62
    15
100
AcDbLine
 10
379.9028995424841
 20
404.7059998628491
 30
0.0
 11
379.9028995424841
 21
411.7759998628491
 31
0.0
  0
LINE
  5
11A
330
19
100
AcDbEntity
  8
BOR715
 62
    15
100
AcDbLine
 10
420.6913610809457
 20
404.7059998628491
 30
0.0
 11
420.6913610809457
 21
411.7759998628491
 31
0.0
  0
LINE
  5
11B
330
19
100
AcDbEntity
  8
BOR715
 62
    15
100
AcDbLine
 10
461.4798226194073
 20
404.7059998628491
 30
0.0
 11
461.4798226194073
 21
411.7759998628491
 31
0.0
  0
LINE
  5
11C
330
19
100
AcDbEntity
  8
BOR715
 62
    15
100
AcDbLine
 10
502.2682841578688
 20
404.7059998628491
 30
0.0
 11
502.2682841578688
 21
411.7759998628491
 31
0.0
  0
LINE
  5
11D
330
19
100
AcDbEntity
  8
BOR715
 62
    15
100
AcDbLine
 10
543.0567456963304
 20
404.7059998628491
 30
0.0
 11
543.0567456963304
 21
411.7759998628491
 31
0.0
  0
LINE
  5
11E
330
19
100
AcDbEntity
  8
BOR715
 62
    15
100
AcDbLine
 10
12.80674569633015
 20
404.7059998628491
 30
0.0
 11
12.80674569633015
 21
411.7759998628491
 31
0.0
  0
TEXT
  5
11F
330
19
100
AcDbEntity
  8
BOR715
100
AcDbText
 10
29.22002808784293
 20
406.0597109028262
 30
0.0
 40
2.828
  1
A
100
AcDbText
  0
TEXT
  5
120
330
19
100
AcDbEntity
  8
BOR715
100
AcDbText
 10
70.00848962630451
 20
406.0597109028262
 30
0.0
 40
2.828
  1
B
100
AcDbText
  0
TEXT
  5
121
330
19
100
AcDbEntity
  8
BOR715
100
AcDbText
 10
110.7969511647661
 20
406.0597109028262
 30
0.0
 40
2.828
  1
C
100
AcDbText
  0
TEXT
  5
122
330
19
100
AcDbEntity
  8
BOR715
100
AcDbText
 10
151.5854127032277
 20
406.0597109028262
 30
0.0
 40
2.828
  1
D
100
AcDbText
  0
TEXT
  5
123
330
19
100
AcDbEntity
  8
BOR715
100
AcDbText
 10
192.3738742416892
 20
406.0597109028262
 30
0.0
 40
2.828
  1
E
100
AcDbText
  0
TEXT
  5
124
330
19
100
AcDbEntity
  8
BOR715
100
AcDbText
 10
233.1623357801508
 20
406.0597109028262
 30
0.0
 40
2.828
  1
F
100
AcDbText
  0
TEXT
  5
125
330
19
100
AcDbEntity
  8
BOR715
100
AcDbText
 10
273.9507973186124
 20
406.0597109028261
 30
0.0
 40
2.828
  1
G
100
AcDbText
  0
TEXT
  5
126
330
19
100
AcDbEntity
  8
BOR715
100
AcDbText
 10
314.7392588570739
 20
406.0597109028261
 30
0.0
 40
2.828
  1
H
100
AcDbText
  0
TEXT
  5
127
330
19
100
AcDbEntity
  8
BOR715
100
AcDbText
 10
355.5277203955355
 20
406.0597109028261
 30
0.0
 40
2.828
  1
I
100
AcDbText
  0
TEXT
  5
128
330
19
100
AcDbEntity
  8
BOR715
100
AcDbText
 10
396.3161819339971
 20
406.0597109028261
 30
0.0
 40
2.828
  1
J
100
AcDbText
  0
TEXT
  5
129
330
19
100
AcDbEntity
  8
BOR715
100
AcDbText
 10
437.1046434724587
 20
406.0597109028261
 30
0.0
 40
2.828
  1
K
100
AcDbText
  0
TEXT
  5
12A
330
19
100
AcDbEntity
  8
BOR715
100
AcDbText
 10
477.8931050109202
 20
406.0597109028261
 30
0.0
 40
2.828
  1
L
100
AcDbText
  0
TEXT
  5
12B
330
19
100
AcDbEntity
  8
BOR715
100
AcDbText
 10
518.6815665493817
 20
406.0597109028261
 30
0.0
 40
2.828
  1
M
100
AcDbText
  0
POINT
  5
12C
330
19
100
AcDbEntity
  8
BOR715
100
AcDbPoint
 10
25.00494623656418
 20
498.8892114695348
 30
0.0
  0
POINT
  5
12D
330
19
100
AcDbEntity
  8
BOR715
100
AcDbPoint
 10
25.00494623656417
 20
437.7781003584237
 30
0.0
  0
POINT
  5
12E
330
19
100
AcDbEntity
  8
BOR715
100
AcDbPoint
 10
25.00494623656416
 20
376.6669892473126
 30
0.0
  0
POINT
  5
12F
330
19
100
AcDbEntity
  8
BOR715
100
AcDbPoint
 10
25.00494623656415
 20
315.5558781362015
 30
0.0
  0
POINT
  5
130
330
19
100
AcDbEntity
  8
BOR715
100
AcDbPoint
 10
25.00494623656414
 20
254.4447670250904
 30
0.0
  0
POINT
  5
131
330
19
100
AcDbEntity
  8
BOR715
100
AcDbPoint
 10
25.00494623656413
 20
193.3336559139793
 30
0.0
  0
POINT
  5
132
330
19
100
AcDbEntity
  8
BOR715
100
AcDbPoint
 10
25.00494623656412
 20
132.2225448028682
 30
0.0
  0
POINT
  5
133
330
19
100
AcDbEntity
  8
BOR715
100
AcDbPoint
 10
25.00494623656411
 20
71.11143369175716
 30
0.0
  0
LINE
  5
134
330
19
100
AcDbEntity
  8
BOR715
100
AcDbLine
 10
12.80674569633015
 20
361.5004443072935
 30
0.0
 11
5.736745696330154
 21
361.5004443072935
 31
0.0
  0
LINE
  5
135
330
19
100
AcDbEntity
  8
BOR715
100
AcDbLine
 10
12.80674569633015
 20
318.294888751738
 30
0.0
 11
5.736745696330154
 21
318.294888751738
 31
0.0
  0
LINE
  5
136
330
19
100
AcDbEntity
  8
BOR715
100
AcDbLine
 10
12.80674569633015
 20
275.0893331961825
 30
0.0
 11
5.736745696330154
 21
275.0893331961825
 31
0.0
  0
LINE
  5
137
330
19
100
AcDbEntity
  8
BOR715
100
AcDbLine
 10
12.80674569633015
 20
231.8837776406269
 30
0.0
 11
5.736745696330154
 21
231.8837776406269
 31
0.0
  0
LINE
  5
138
330
19
100
AcDbEntity
  8
BOR715
100
AcDbLine
 10
12.80674569633015
 20
188.6782220850714
 30
0.0
 11
5.736745696330154
 21
188.6782220850714
 31
0.0
  0
LINE
  5
139
330
19
100
AcDbEntity
  8
BOR715
100
AcDbLine
 10
12.80674569633015
 20
145.4726665295158
 30
0.0
 11
5.736745696330154
 21
145.4726665295158
 31
0.0
  0
LINE
  5
13A
330
19
100
AcDbEntity
  8
BOR715
100
AcDbLine
 10
12.80674569633015
 20
102.2671109739603
 30
0.0
 11
5.736745696330154
 21
102.2671109739603
 31
0.0
  0
LINE
  5
13B
330
19
100
AcDbEntity
  8
BOR715
100
AcDbLine
 10
12.80674569633015
 20
59.06155541840472
 30
0.0
 11
5.736745696330154
 21
59.06155541840472
 31
0.0
  0
LINE
  5
13C
330
19
100
AcDbEntity
  8
BOR715
100
AcDbLine
 10
12.80674569633015
 20
15.8559998628491
 30
0.0
 11
5.736745696330154
 21
15.8559998628491
 31
0.0
  0
LINE
  5
13D
330
19
100
AcDbEntity
  8
BOR715
100
AcDbLine
 10
12.80674569633015
 20
404.7059998628491
 30
0.0
 11
5.736745696330154
 21
404.7059998628491
 31
0.0
  0
TEXT
  5
13E
330
19
100
AcDbEntity
  8
BOR715
100
AcDbText
 10
7.244267152594229
 20
379.231869368986
 30
0.0
 40
2.828
  1
1
100
AcDbText
  0
TEXT
  5
13F
330
19
100
AcDbEntity
  8
BOR715
100
AcDbText
 10
7.244267152594229
 20
336.0263138134304
 30
0.0
 40
2.828
  1
2
100
AcDbText
  0
TEXT
  5
140
330
19
100
AcDbEntity
  8
BOR715
100
AcDbText
 10
7.244267152594229
 20
292.8207582578748
 30
0.0
 40
2.828
  1
3
100
AcDbText
  0
TEXT
  5
141
330
19
100
AcDbEntity
  8
BOR715
100
AcDbText
 10
7.244267152594229
 20
249.6152027023193
 30
0.0
 40
2.828
  1
4
100
AcDbText
  0
TEXT
  5
142
330
19
100
AcDbEntity
  8
BOR715
100
AcDbText
 10
7.244267152594229
 20
206.4096471467637
 30
0.0
 40
2.828
  1
5
100
AcDbText
  0
TEXT
  5
143
330
19
100
AcDbEntity
  8
BOR715
100
AcDbText
 10
7.244267152594229
 20
163.2040915912082
 30
0.0
 40
2.828
  1
6
100
AcDbText
  0
TEXT
  5
144
330
19
100
AcDbEntity
  8
BOR715
100
AcDbText
 10
7.244267152594229
 20
119.9985360356527
 30
0.0
 40
2.828
  1
7
100
AcDbText
  0
TEXT
  5
145
330
19
100
AcDbEntity
  8
BOR715
100
AcDbText
 10
7.244267152594229
 20
76.79298048009716
 30
0.0
 40
2.828
  1
8
100
AcDbText
  0
TEXT
  5
146
330
19
100
AcDbEntity
  8
BOR715
100
AcDbText
 10
7.244267152594229
 20
33.58742492454157
 30
0.0
 40
2.828
  1
9
100
AcDbText
  0
LINE
  5
147
330
19
100
AcDbEntity
  8
BOR715
 62
    15
100
AcDbLine
 10
543.0567456963302
 20
15.85599986284902
 30
0.0
 11
543.0567456963304
 21
404.7059998628491
 31
0.0
  0
LINE
  5
22E
330
19
100
AcDbEntity
  8
CTR34
100
AcDbLine
 10
277.8808570944526
 20
252.3124049983671
 30
0.0
 11
277.8808570944526
 21
362.2849164270019
 31
0.0
  0
LINE
  5
231
330
19
100
AcDbEntity
  8
CTR34
100
AcDbLine
 10
97.88085709445244
 20
257.2668805299219
 30
0.0
 11
97.8808570944526
 21
362.2849164270019
 31
0.0
  0
LINE
  5
232
330
19
100
AcDbEntity
  8
CTR34
100
AcDbLine
 10
37.88085709445248
 20
276.7349164270018
 30
0.0
 11
37.88085709445252
 21
362.2849164270019
 31
0.0
  0
LINE
  5
233
330
19
100
AcDbEntity
  8
CTR34
100
AcDbLine
 10
337.8808570944525
 20
269.9207299277899
 30
0.0
 11
337.8808570944526
 21
362.2849164270019
 31
0.0
  0
LINE
  5
24C
330
19
100
AcDbEntity
  8
OUT57
100
AcDbLine
 10
194.2157767780478
 20
321.7263917327454
 30
0.0
 11
216.6826482059884
 21
342.6205821607303
 31
0.0
  0
LINE
  5
255
330
19
100
AcDbEntity
  8
OUT57
100
AcDbLine
 10
355.4571913494989
 20
357.1267248443351
 30
0.0
 11
363.4918739490524
 21
285.2163155783326
 31
0.0
  0
LINE
  5
2CA
330
19
100
AcDbEntity
  8
OUT57
100
AcDbLine
 10
31.37189499633241
 20
312.8286325844188
 30
0.0
 11
36.97807931667472
 21
312.9791293899648
 31
0.0
  0
LINE
  5
2CB
330
19
100
AcDbEntity
  8
OUT57
100
AcDbLine
 10
36.97807931667472
 20
312.9791293899648
 30
0.0
 11
53.99196820556364
 21
313.6886201307055
 31
0.0
  0
LINE
  5
2CC
330
19
100
AcDbEntity
  8
OUT57
100
AcDbLine
 10
53.99196820556364
 20
313.6886201307055
 30
0.0
 11
78.50585709445252
 21
314.8286664270018
 31
0.0
  0
LINE
  5
2CD
330
19
100
AcDbEntity
  8
OUT57
100
AcDbLine
 10
78.50585709445252
 20
314.8286664270018
 30
0.0
 11
110.1030793166748
 21
316.3645460566315
 31
0.0
  0
LINE
  5
2CE
330
19
100
AcDbEntity
  8
OUT57
100
AcDbLine
 10
110.1030793166748
 20
316.3645460566315
 30
0.0
 11
148.3669682055636
 21
318.2615367973722
 31
0.0
  0
LINE
  5
2CF
330
19
100
AcDbEntity
  8
OUT57
100
AcDbLine
 10
148.3669682055636
 20
318.2615367973722
 30
0.0
 11
191.0601426129659
 21
320.3939753838677
 31
0.0
  0
ARC
  5
2D0
330
19
100
AcDbEntity
  8
OUT57
100
AcDbCircle
 10
190.8107135676534
 20
325.387750023492
 30
0.0
 40
5.0
100
AcDbArc
 50
272.8594331488654
 51
312.9228252348373
  0
LINE
  5
2D1
330
19
100
AcDbEntity
  8
OUT57
100
AcDbLine
 10
219.5060368873554
 20
343.9252740854246
 30
0.0
 11
243.5151163537118
 21
346.7374627232982
 31
0.0
  0
LINE
  5
2D2
330
19
100
AcDbEntity
  8
OUT57
100
AcDbLine
 10
243.5151163537118
 20
346.7374627232982
 30
0.0
 11
262.9549311685266
 21
349.0886201307056
 31
0.0
  0
LINE
  5
2D3
330
19
100
AcDbEntity
  8
OUT57
100
AcDbLine
 10
262.9549311685266
 20
349.0886201307056
 30
0.0
 11
280.0058570944526
 21
351.3036664270019
 31
0.0
  0
LINE
  5
2D4
330
19
100
AcDbEntity
  8
OUT57
100
AcDbLine
 10
280.0058570944526
 20
351.3036664270019
 30
0.0
 11
298.4734496870451
 21
353.8978793899649
 31
0.0
  0
LINE
  5
2D5
330
19
100
AcDbEntity
  8
OUT57
100
AcDbLine
 10
298.4734496870451
 20
353.8978793899649
 30
0.0
 11
322.1632645018599
 21
357.3865367973723
 31
0.0
  0
LINE
  5
2D6
330
19
100
AcDbEntity
  8
OUT57
100
AcDbLine
 10
322.1632645018599
 20
357.3865367973723
 30
0.0
 11
349.7477785491559
 21
361.5164073347634
 31
0.0
  0
ARC
  5
2D7
330
19
100
AcDbEntity
  8
OUT57
100
AcDbCircle
 10
220.0877114163828
 20
338.9592238699837
 30
0.0
 40
5.0
100
AcDbArc
 50
96.68062635661383
 51
132.9228252348372
  0
ARC
  5
2F6
330
19
100
AcDbEntity
  8
OUT57
100
AcDbCircle
 10
358.5227947489848
 20
284.6611111984368
 30
0.0
 40
5.0
100
AcDbArc
 50
296.3441862161537
 51
6.375320974808522
  0
ARC
  5
2F7
330
19
100
AcDbEntity
  8
OUT57
100
AcDbCircle
 10
350.4881121494313
 20
356.5715204644393
 30
0.0
 40
5.0
100
AcDbArc
 50
6.375320974808496
 51
98.51490673992059
  0
LINE
  5
2F9
330
19
100
AcDbEntity
  8
CTR34
100
AcDbLine
 10
27.88085709445251
 20
155.0292053565672
 30
0.0
 11
119.0386489858551
 21
155.0292053565672
 31
0.0
  0
LINE
  5
2FB
330
19
100
AcDbEntity
  8
CTR34
100
AcDbLine
 10
37.88085709445245
 20
168.8219308763975
 30
0.0
 11
37.88085709445249
 21
141.236479836737
 31
0.0
  0
LINE
  5
2FD
330
19
100
AcDbEntity
  8
CTR34
100
AcDbLine
 10
97.88085709445244
 20
183.0292053565672
 30
0.0
 11
97.88085709445244
 21
127.0937045396705
 31
0.0
  0
LINE
  5
3E7
330
19
100
AcDbEntity
  8
CTR34
100
AcDbLine
 10
217.8808570944524
 20
194.252796882181
 30
0.0
 11
217.8808570944524
 21
115.8056138309534
 31
0.0
  0
LINE
  5
3E8
330
19
100
AcDbEntity
  8
CTR34
100
AcDbLine
 10
277.8808570944526
 20
189.0292053565672
 30
0.0
 11
277.8808570944525
 21
120.9718196770556
 31
0.0
  0
LINE
  5
3E9
330
19
100
AcDbEntity
  8
CTR34
100
AcDbLine
 10
337.8808570944525
 20
168.0292053565672
 30
0.0
 11
337.8808570944524
 21
142.0010161802064
 31
0.0
  0
LINE
  5
42B
330
19
100
AcDbEntity
  8
OUT57
100
AcDbLine
 10
192.7556265149659
 20
194.3551462818078
 30
0.0
 11
217.8847214508461
 21
155.0292053565672
 31
0.0
  0
LINE
  5
456
330
19
100
AcDbEntity
  8
OUT57
100
AcDbLine
 10
192.7556265149659
 20
115.7032644313266
 30
0.0
 11
217.8847214508461
 21
155.0292053565672
 31
0.0
  0
POLYLINE
  5
4D0
330
19
100
AcDbEntity
  8
OUT57
100
AcDb2dPolyline
 66
     1
 10
0.0
 20
0.0
 30
0.0
 70
     4
 75
     6
  0
VERTEX
  5
4D1
330
4D0
100
AcDbEntity
  8
OUT57
100
AcDbVertex
100
AcDb2dVertex
 10
191.0601426129659
 20
320.3939753838677
 30
0.0
 70
    16
  0
VERTEX
  5
B84
330
4D0
100
AcDbEntity
  8
OUT57
100
AcDbVertex
100
AcDb2dVertex
 10
191.0601426129659
 20
320.3939753838677
 30
0.0
 70
     8
  0
VERTEX
  5
B85
330
4D0
100
AcDbEntity
  8
OUT57
100
AcDbVertex
100
AcDb2dVertex
 10
209.7812682757596
 20
321.3063409695222
 30
0.0
 70
     8
  0
VERTEX
  5
B86
330
4D0
100
AcDbEntity
  8
OUT57
100
AcDbVertex
100
AcDb2dVertex
 10
225.197956658822
 20
322.3071407280204
 30
0.0
 70
     8
  0
VERTEX
  5
B87
330
4D0
100
AcDbEntity
  8
OUT57
100
AcDbVertex
100
AcDb2dVertex
 10
237.8407652556705
 20
323.3784934126704
 30
0.0
 70
     8
  0
VERTEX
  5
B88
330
4D0
100
AcDbEntity
  8
OUT57
100
AcDbVertex
100
AcDb2dVertex
 10
248.2402515598221
 20
324.5025177767805
 30
0.0
 70
     8
  0
VERTEX
  5
B89
330
4D0
100
AcDbEntity
  8
OUT57
100
AcDbVertex
100
AcDb2dVertex
 10
256.9269730647941
 20
325.6613325736587
 30
0.0
 70
     8
  0
VERTEX
  5
B8A
330
4D0
100
AcDbEntity
  8
OUT57
100
AcDbVertex
100
AcDb2dVertex
 10
264.4314872641039
 20
326.8370565566136
 30
0.0
 70
     8
  0
VERTEX
  5
B8B
330
4D0
100
AcDbEntity
  8
OUT57
100
AcDbVertex
100
AcDb2dVertex
 10
271.2095372853455
 20
328.0160922222174
 30
0.0
 70
     8
  0
VERTEX
  5
B8C
330
4D0
100
AcDbEntity
  8
OUT57
100
AcDbVertex
100
AcDb2dVertex
 10
277.4176087924224
 20
329.2019770401001
 30
0.0
 70
     8
  0
VERTEX
  5
B8D
330
4D0
100
AcDbEntity
  8
OUT57
100
AcDbVertex
100
AcDb2dVertex
 10
283.1373730833149
 20
330.4025322231561
 30
0.0
 70
     8
  0
VERTEX
  5
B8E
330
4D0
100
AcDbEntity
  8
OUT57
100
AcDbVertex
100
AcDb2dVertex
 10
288.4505014560035
 20
331.6255789842799
 30
0.0
 70
     8
  0
VERTEX
  5
B8F
330
4D0
100
AcDbEntity
  8
OUT57
100
AcDbVertex
100
AcDb2dVertex
 10
293.4386652084685
 20
332.8789385363658
 30
0.0
 70
     8
  0
VERTEX
  5
B90
330
4D0
100
AcDbEntity
  8
OUT57
100
AcDbVertex
100
AcDb2dVertex
 10
298.1835356386905
 20
334.1704320923081
 30
0.0
 70
     8
  0
VERTEX
  5
B91
330
4D0
100
AcDbEntity
  8
OUT57
100
AcDbVertex
100
AcDb2dVertex
 10
302.7600497936388
 20
335.5097956656991
 30
0.0
 70
     8
  0
VERTEX
  5
B92
330
4D0
100
AcDbEntity
  8
OUT57
100
AcDbVertex
100
AcDb2dVertex
 10
307.2162077162391
 20
336.9144244729231
 30
0.0
 70
     8
  0
VERTEX
  5
B93
330
4D0
100
AcDbEntity
  8
OUT57
100
AcDbVertex
100
AcDb2dVertex
 10
311.5932751984062
 20
338.403628531062
 30
0.0
 70
     8
  0
VERTEX
  5
B94
330
4D0
100
AcDbEntity
  8
OUT57
100
AcDbVertex
100
AcDb2dVertex
 10
315.9325180320549
 20
339.9967178571979
 30
0.0
 70
     8
  0
VERTEX
  5
B95
330
4D0
100
AcDbEntity
  8
OUT57
100
AcDbVertex
100
AcDb2dVertex
 10
320.2752020090998
 20
341.7130024684129
 30
0.0
 70
     8
  0
VERTEX
  5
B96
330
4D0
100
AcDbEntity
  8
OUT57
100
AcDbVertex
100
AcDb2dVertex
 10
324.6625929214557
 20
343.5717923817891
 30
0.0
 70
     8
  0
VERTEX
  5
B97
330
4D0
100
AcDbEntity
  8
OUT57
100
AcDbVertex
100
AcDb2dVertex
 10
329.1307984998375
 20
345.6017619913048
 30
0.0
 70
     8
  0
VERTEX
  5
B98
330
4D0
100
AcDbEntity
  8
OUT57
100
AcDbVertex
100
AcDb2dVertex
 10
333.6952942301611
 20
347.8690431985235
 30
0.0
 70
     8
  0
VERTEX
  5
B99
330
4D0
100
AcDbEntity
  8
OUT57
100
AcDbVertex
100
AcDb2dVertex
 10
338.3663975371424
 20
350.4491322819051
 30
0.0
 70
     8
  0
VERTEX
  5
B9A
330
4D0
100
AcDbEntity
  8
OUT57
100
AcDbVertex
100
AcDb2dVertex
 10
343.1544258454974
 20
353.4175255199094
 30
0.0
 70
     8
  0
VERTEX
  5
B9B
330
4D0
100
AcDbEntity
  8
OUT57
100
AcDbVertex
100
AcDb2dVertex
 10
348.0696965799423
 20
356.849719190996
 30
0.0
 70
     8
  0
VERTEX
  5
B9C
330
4D0
100
AcDbEntity
  8
OUT57
100
AcDbVertex
100
AcDb2dVertex
 10
353.1225271651928
 20
360.8212095736251
 30
0.0
 70
     8
  0
VERTEX
  5
4D2
330
4D0
100
AcDbEntity
  8
OUT57
100
AcDbVertex
100
AcDb2dVertex
 10
232.1605362139626
 20
322.1183515512051
 30
0.0
 70
    16
  0
VERTEX
  5
4D3
330
4D0
100
AcDbEntity
  8
OUT57
100
AcDbVertex
100
AcDb2dVertex
 10
268.341386136975
 20
326.842888920306
 30
0.0
 70
    16
  0
VERTEX
  5
4D4
330
4D0
100
AcDbEntity
  8
OUT57
100
AcDbVertex
100
AcDb2dVertex
 10
299.1532677842667
 20
333.8947007918032
 30
0.0
 70
    16
  0
VERTEX
  5
4D5
330
4D0
100
AcDbEntity
  8
OUT57
100
AcDbVertex
100
AcDb2dVertex
 10
324.1467565581012
 20
342.6009004663297
 30
0.0
 70
    16
  0
VERTEX
  5
4D6
330
4D0
100
AcDbEntity
  8
OUT57
100
AcDbVertex
100
AcDb2dVertex
 10
342.8724278607419
 20
352.2886012445182
 30
0.0
 70
    16
  0
VERTEX
  5
4D7
330
4D0
100
AcDbEntity
  8
OUT57
100
AcDbVertex
100
AcDb2dVertex
 10
353.1225271651927
 20
360.821209573625
 30
0.0
 70
    16
  0
SEQEND
  5
4D8
330
4D0
100
AcDbEntity
  8
OUT57
  0
TEXT
  5
60C
330
19
100
AcDbEntity
  8
TXT34
 62
     3
100
AcDbText
 10
452.2904789431695
 20
39.33035674376504
 30
0.0
 40
2.4745
  1
FAT BOY SLIM
100
AcDbText
  0
LINE
  5
60F
330
19
100
AcDbEntity
  8
HID34
100
AcDbLine
 10
212.8808570944525
 20
287.9349164270019
 30
0.0
 11
212.8808570944525
 21
244.7924841859775
 31
0.0
  0
LINE
  5
61B
330
19
100
AcDbEntity
  8
HID34
100
AcDbLine
 10
117.7698245276479
 20
281.7349164270021
 30
0.0
 11
212.8808570944525
 21
281.734916427002
 31
0.0
  0
CIRCLE
  5
61D
330
19
100
AcDbEntity
  8
OUT57
100
AcDbCircle
 10
240.332250857336
 20
155.0292053565672
 30
0.0
 40
1.5
  0
CIRCLE
  5
61E
330
19
100
AcDbEntity
  8
OUT57
100
AcDbCircle
 10
240.332250857336
 20
155.0292053565672
 30
0.0
 40
2.5
  0
LINE
  5
718
330
19
100
AcDbEntity
  8
OUT57
100
AcDbLine
 10
197.8234363000597
 20
184.0061536551191
 30
0.0
 11
197.8234363000597
 21
126.0522570580153
 31
0.0
  0
ARC
  5
725
330
19
100
AcDbEntity
  8
OUT57
100
AcDbCircle
 10
62.88085709445249
 20
145.3266590086483
 30
0.0
 40
5.000000000000014
100
AcDbArc
 50
180.0
 51
256.6024888572871
  0
LINE
  5
726
330
19
100
AcDbEntity
  8
OUT57
100
AcDbLine
 10
57.88085709445249
 20
145.3266590086483
 30
0.0
 11
57.8808570944525
 21
164.7317517044863
 31
0.0
  0
ARC
  5
727
330
19
100
AcDbEntity
  8
OUT57
100
AcDbCircle
 10
62.88085709445249
 20
164.7317517044863
 30
0.0
 40
4.999999999999993
100
AcDbArc
 50
103.397511142713
 51
180.0
  0
LINE
  5
728
330
19
100
AcDbEntity
  8
OUT57
100
AcDbLine
 10
61.72232885893654
 20
169.5956814251455
 30
0.0
 11
68.28191558183711
 21
171.1580943028476
 31
0.0
  0
LINE
  5
729
330
19
100
AcDbEntity
  8
OUT57
100
AcDbLine
 10
68.28191558183711
 20
171.1580943028476
 30
0.0
 11
81.18929072287675
 21
174.1388001805295
 31
0.0
  0
LINE
  5
72A
330
19
100
AcDbEntity
  8
OUT57
100
AcDbLine
 10
81.18929072287675
 20
174.1388001805295
 30
0.0
 11
93.95602288693844
 21
177.0005719017273
 31
0.0
  0
LINE
  5
72B
330
19
100
AcDbEntity
  8
OUT57
100
AcDbLine
 10
93.95602288693844
 20
177.0005719017273
 30
0.0
 11
106.0155889660057
 21
179.6080039104824
 31
0.0
  0
LINE
  5
72C
330
19
100
AcDbEntity
  8
OUT57
100
AcDbLine
 10
106.0155889660057
 20
179.6080039104824
 30
0.0
 11
117.3583260904152
 21
181.9227939910128
 31
0.0
  0
LINE
  5
72D
330
19
100
AcDbEntity
  8
OUT57
100
AcDbLine
 10
117.3583260904152
 20
181.9227939910128
 30
0.0
 11
128.1199328310613
 21
183.9326623863009
 31
0.0
  0
LINE
  5
72E
330
19
100
AcDbEntity
  8
OUT57
100
AcDbLine
 10
128.1199328310613
 20
183.9326623863009
 30
0.0
 11
138.4389564555345
 21
185.626378158535
 31
0.0
  0
LINE
  5
72F
330
19
100
AcDbEntity
  8
OUT57
100
AcDbLine
 10
138.4389564555345
 20
185.626378158535
 30
0.0
 11
148.4560875625983
 21
186.9934008552588
 31
0.0
  0
LINE
  5
730
330
19
100
AcDbEntity
  8
OUT57
100
AcDbLine
 10
148.4560875625983
 20
186.9934008552588
 30
0.0
 11
158.3180490818238
 21
188.0239154425463
 31
0.0
  0
LINE
  5
731
330
19
100
AcDbEntity
  8
OUT57
100
AcDbLine
 10
158.3180490818238
 20
188.0239154425463
 30
0.0
 11
168.1637407808238
 21
188.7211850053453
 31
0.0
  0
LINE
  5
732
330
19
100
AcDbEntity
  8
OUT57
100
AcDbLine
 10
173.2315505659176
 20
188.7211850053454
 30
0.0
 11
182.7509080818232
 21
188.8592839429407
 31
0.0
  0
LINE
  5
733
330
19
100
AcDbEntity
  8
OUT57
100
AcDbLine
 10
201.0097548770322
 20
189.194982417742
 30
0.0
 11
201.0097548770322
 21
189.194982417742
 31
0.0
  0
ARC
  5
819
330
19
100
AcDbEntity
  8
HID34
100
AcDbCircle
 10
211.4486732112485
 20
155.0292053565673
 30
0.0
 40
1.5
100
AcDbArc
 50
359.9999999999978
 51
91.39876176208546
  0
ARC
  5
81A
330
19
100
AcDbEntity
  8
HID34
100
AcDbCircle
 10
196.3348092582275
 20
-37.97201882414699
 30
0.0
 40
195.0842785675189
100
AcDbArc
 50
85.56742861118288
 51
88.62684836330908
  0
ARC
  5
81C
330
19
100
AcDbEntity
  8
HID34
100
AcDbCircle
 10
211.4486676750583
 20
155.0184543731556
 30
0.0
 40
1.5
100
AcDbArc
 50
268.5422296256934
 51
359.9409913877814
  0
ARC
  5
81D
330
19
100
AcDbEntity
  8
HID34
100
AcDbCircle
 10
195.5239234795006
 20
408.347565272793
 30
0.0
 40
255.4042646485875
100
AcDbArc
 50
262.6723146531164
 51
271.2307514118745
  0
ARC
  5
81E
330
19
100
AcDbEntity
  8
HID34
100
AcDbCircle
 10
195.1542825994419
 20
-91.34232829170219
 30
0.0
 40
248.467571059616
100
AcDbArc
 50
88.64962293104027
 51
97.44745804245073
  0
ARC
  5
81F
330
19
100
AcDbEntity
  8
HID34
100
AcDbCircle
 10
196.5335826152493
 20
348.0351418810067
 30
0.0
 40
195.0842785675189
100
AcDbArc
 50
271.3147563173309
 51
274.3735627765959
  0
LINE
  5
820
330
19
100
AcDbEntity
  8
HID34
100
AcDbLine
 10
212.9486668795463
 20
115.7027300934374
 30
0.0
 11
212.9486668795462
 21
194.3556806196971
 31
0.0
  0
LINE
  5
82B
330
19
100
AcDbEntity
  8
HID34
100
AcDbLine
 10
117.7698245276479
 20
284.7349164270021
 30
0.0
 11
212.8808570944525
 21
284.734916427002
 31
0.0
  0
TEXT
  5
B62
330
19
100
AcDbEntity
  8
TXT34
 62
     3
100
AcDbText
 10
236.743190990249
 20
18.84358429715346
 30
0.0
 40
2.9694
  1
05/07/2014
 72
     1
 11
250.529690990249
 21
18.84358429715346
 31
0.0
100
AcDbText
  0
TEXT
  5
B63
330
19
100
AcDbEntity
  8
TXT34
 62
     3
100
AcDbText
 10
326.1828051107121
 20
21.43427160589978
 30
0.0
 40
1.9796
  1
INITIAL ISSUE
100
AcDbText
  0
TEXT
  5
B64
330
19
100
AcDbEntity
  8
TXT34
 62
     3
100
AcDbText
 10
398.2956095552663
 20
21.43427160589978
 30
0.0
 40
1.75
  1
05/07/2014
100
AcDbText
  0
TEXT
  5
B65
330
19
100
AcDbEntity
  8
TXT34
 62
     3
100
AcDbText
 10
416.8363981772732
 20
21.43427160589978
 30
0.0
 40
1.9796
  1
PGSJ
 72
     2
 11
423.6235981772732
 21
21.43427160589978
 31
0.0
100
AcDbText
  0
TEXT
  5
B66
330
19
100
AcDbEntity
  8
TXT34
 62
     3
100
AcDbText
 10
318.4569795101308
 20
21.43427160589978
 30
0.0
 40
1.9796
  1
1
100
AcDbText
  0
TEXT
  5
B68
330
19
100
AcDbEntity
  8
TXT34
 62
     3
100
AcDbText
 10
515.3343549202848
 20
22.87339482447975
 30
0.0
 40
2.4745
  1
1:1
100
AcDbText
  0
TEXT
  5
B69
330
19
100
AcDbEntity
  8
TXT34
 62
     3
100
AcDbText
 10
515.2381968735572
 20
16.54102854134177
 30
0.0
 40
2.4745
  1
PGSJ
100
AcDbText
  0
TEXT
  5
B6C
330
19
100
AcDbEntity
  8
OUT57
100
AcDbText
 10
292.4629615103972
 20
278.281485157579
 30
0.0
 40
3.5
  1
WL
100
AcDbText
  0
TEXT
  5
B6E
330
19
100
AcDbEntity
  8
TXT34
 62
     3
100
AcDbText
 10
523.1965113508063
 20
42.93508681872675
 30
0.0
 40
2.121
  1
1
100
AcDbText
  0
TEXT
  5
B6F
330
19
100
AcDbEntity
  8
TXT34
 62
     3
100
AcDbText
 10
532.0784322658226
 20
42.93508681872675
 30
0.0
 40
2.121
  1
2
100
AcDbText
  0
LINE
  5
EB9
330
19
100
AcDbEntity
  8
HID34
100
AcDbLine
 10
214.5486668795463
 20
115.7027300934374
 30
0.0
 11
214.5486668795462
 21
194.3556806196971
 31
0.0
  0
LINE
  5
EBA
330
19
100
AcDbEntity
  8
HID34
100
AcDbLine
 10
209.7486668795463
 20
157.0562371483416
 30
0.0
 11
212.9486668795463
 21
157.0562371483416
 31
0.0
  0
LINE
  5
EBB
330
19
100
AcDbEntity
  8
HID34
100
AcDbLine
 10
209.7486668795463
 20
160.2562371483416
 30
0.0
 11
212.9486668795463
 21
160.2562371483415
 31
0.0
  0
LINE
  5
EBC
330
19
100
AcDbEntity
  8
HID34
100
AcDbLine
 10
209.7486668795463
 20
157.0562371483416
 30
0.0
 11
209.7486668795463
 21
160.2562371483415
 31
0.0
  0
LINE
  5
EBE
330
19
100
AcDbEntity
  8
HID34
100
AcDbLine
 10
209.7486668795463
 20
153.0021735647929
 30
0.0
 11
209.7486668795463
 21
149.802173564793
 31
0.0
  0
LINE
  5
EBF
330
19
100
AcDbEntity
  8
HID34
100
AcDbLine
 10
209.7486668795463
 20
153.0021735647929
 30
0.0
 11
212.9486668795463
 21
153.0021735647929
 31
0.0
  0
LINE
  5
EC0
330
19
100
AcDbEntity
  8
HID34
100
AcDbLine
 10
209.7486668795463
 20
149.8021735647929
 30
0.0
 11
212.9486668795463
 21
149.802173564793
 31
0.0
  0
LINE
  5
EC1
330
19
100
AcDbEntity
  8
HID34
100
AcDbLine
 10
209.7486668795463
 20
149.8021735647929
 30
0.0
 11
209.6032311771488
 21
115.717004506757
 31
0.0
  0
LINE
  5
EC2
330
19
100
AcDbEntity
  8
HID34
100
AcDbLine
 10
209.7486668795463
 20
160.2562371483416
 30
0.0
 11
209.7486668795463
 21
194.342026756139
 31
0.0
  0
LINE
  5
EC3
330
19
100
AcDbEntity
  8
HID34
100
AcDbLine
 10
214.4808570944525
 20
287.9349164270019
 30
0.0
 11
214.4808570944525
 21
244.7924841859775
 31
0.0
  0
LINE
  5
EC4
330
19
100
AcDbEntity
  8
HID34
100
AcDbLine
 10
209.6808570944525
 20
281.7349164270019
 30
0.0
 11
209.6808570944525
 21
278.5349164270019
 31
0.0
  0
LINE
  5
EC5
330
19
100
AcDbEntity
  8
HID34
100
AcDbLine
 10
209.6808570944525
 20
278.5349164270019
 30
0.0
 11
212.8808570944525
 21
278.5349164270019
 31
0.0
  0
LINE
  5
EC8
330
19
100
AcDbEntity
  8
HID34
100
AcDbLine
 10
209.6808570944525
 20
287.9349164270019
 30
0.0
 11
211.2808570944526
 21
287.9349164270019
 31
0.0
  0
LINE
  5
EC9
330
19
100
AcDbEntity
  8
HID34
100
AcDbLine
 10
209.6808570944525
 20
287.9349164270019
 30
0.0
 11
209.6808570944525
 21
284.734916427002
 31
0.0
  0
LINE
  5
ECB
330
19
100
AcDbEntity
  8
HID34
100
AcDbLine
 10
211.4808570944528
 20
287.9231895544081
 30
0.0
 11
214.6808570944527
 21
287.9231895544081
 31
0.0
  0
CIRCLE
  5
F90
330
19
100
AcDbEntity
  8
HID34
100
AcDbCircle
 10
64.85810430890133
 20
155.0292053565672
 30
0.0
 40
1.5
  0
LINE
  5
F91
330
19
100
AcDbEntity
  8
HID34
100
AcDbLine
 10
64.85810430890133
 20
155.0292053565672
 30
0.0
 11
64.85810430890133
 21
165.0292053565672
 31
0.0
  0
CIRCLE
  5
F93
330
19
100
AcDbEntity
  8
HID34
100
AcDbCircle
 10
64.85810430890133
 20
165.0292053565672
 30
0.0
 40
1.0
  0
ARC
  5
F95
330
19
100
AcDbEntity
  8
HID34
100
AcDbCircle
 10
64.85810430890133
 20
155.0292053565672
 30
0.0
 40
2.5
100
AcDbArc
 50
174.275189547775
 51
5.6965332124755
  0
ARC
  5
F96
330
19
100
AcDbEntity
  8
HID34
100
AcDbCircle
 10
64.85810430890133
 20
165.0292053565672
 30
0.0
 40
2.0
100
AcDbArc
 50
2.848266606235558
 51
180.0
  0
LINE
  5
F97
330
19
100
AcDbEntity
  8
HID34
100
AcDbLine
 10
62.35810430890133
 20
155.0292053565672
 30
0.0
 11
62.85810430890133
 21
165.0292053565672
 31
0.0
  0
LINE
  5
F98
330
19
100
AcDbEntity
  8
HID34
100
AcDbLine
 10
67.35810430890133
 20
155.0292053565672
 30
0.0
 11
66.85563357159843
 21
165.1285876722415
 31
0.0
  0
LINE
  5
F9E
330
19
100
AcDbEntity
  8
HID34
100
AcDbLine
 10
151.0335150809159
 20
141.0292053565672
 30
0.0
 11
151.0335150809159
 21
140.5292053565672
 31
0.0
  0
LINE
  5
F9F
330
19
100
AcDbEntity
  8
HID34
100
AcDbLine
 10
212.9486668795463
 20
123.6859261705366
 30
0.0
 11
200.4143522628285
 21
123.6859261705366
 31
0.0
  0
LINE
  5
FA0
330
19
100
AcDbEntity
  8
HID34
100
AcDbLine
 10
194.9486732112487
 20
135.6859261705366
 30
0.0
 11
194.9486732112486
 21
123.6859261705366
 31
0.0
  0
LINE
  5
FA1
330
19
100
AcDbEntity
  8
HID34
100
AcDbLine
 10
194.9486732112486
 20
123.6859261705366
 30
0.0
 11
171.9486732112486
 21
123.6859261705366
 31
0.0
  0
LINE
  5
FA2
330
19
100
AcDbEntity
  8
HID34
100
AcDbLine
 10
171.9486732112486
 20
123.6859261705366
 30
0.0
 11
171.9486732112486
 21
135.6859261705366
 31
0.0
  0
ARC
  5
FA9
330
19
100
AcDbEntity
  8
OUT57
100
AcDbCircle
 10
158.7699668900002
 20
155.0312869392313
 30
0.0
 40
5.000000000000028
100
AcDbArc
 50
89.73444056177928
 51
150.1820650004903
  0
LINE
  5
FAA
330
19
100
AcDbEntity
  8
HID34
100
AcDbLine
 10
159.2976343127416
 20
160.0567496688025
 30
0.0
 11
186.9188942703886
 21
156.9699361019906
 31
0.0
  0
LINE
  5
FAB
330
19
100
AcDbEntity
  8
HID34
100
AcDbLine
 10
159.2976343127416
 20
150.0567496688025
 30
0.0
 11
186.9188942703886
 21
153.1435632356145
 31
0.0
  0
CIRCLE
  5
FAC
330
19
100
AcDbEntity
  8
HID34
100
AcDbCircle
 10
159.2976343127416
 20
155.0567496688025
 30
0.0
 40
1.0
  0
LINE
  5
FB4
330
19
100
AcDbEntity
  8
HID34
100
AcDbLine
 10
212.9486668795463
 20
186.2324930884296
 30
0.0
 11
206.9486668795463
 21
186.2454128814958
 31
0.0
  0
LINE
  5
FB5
330
19
100
AcDbEntity
  8
HID34
100
AcDbLine
 10
159.6669130319966
 20
135.7311453414345
 30
0.0
 11
180.6668643468589
 21
135.6859261705366
 31
0.0
  0
CIRCLE
  5
FBF
330
19
100
AcDbEntity
  8
OUT57
100
AcDbCircle
 10
310.5034599839094
 20
155.0292053565672
 30
0.0
 40
1.0
  0
LINE
  5
FC0
330
19
100
AcDbEntity
  8
HID34
100
AcDbLine
 10
154.2298245276479
 20
278.5231895544078
 30
0.0
 11
154.2298245276479
 21
281.7231895544077
 31
0.0
  0
LINE
  5
FC1
330
19
100
AcDbEntity
  8
HID34
100
AcDbLine
 10
186.8510844852949
 20
278.5231895544077
 30
0.0
 11
186.8510844852949
 21
281.7231895544077
 31
0.0
  0
LINE
  5
FC2
330
19
100
AcDbEntity
  8
HID34
100
AcDbLine
 10
154.2298245276479
 20
278.5231895544078
 30
0.0
 11
186.8510844852949
 21
278.5231895544077
 31
0.0
  0
LINE
  5
FC4
330
19
100
AcDbEntity
  8
CTR34
100
AcDbLine
 10
159.2298245276479
 20
273.5349164270015
 30
0.0
 11
159.2298245276479
 21
289.7349164270014
 31
0.0
  0
LINE
  5
101A
330
19
100
AcDbEntity
  8
HID34
100
AcDbLine
 10
117.7698245276479
 20
281.734916427002
 30
0.0
 11
117.7698245276479
 21
284.7349164270021
 31
0.0
  0
LINE
  5
101B
330
19
100
AcDbEntity
  8
OUT57
100
AcDbLine
 10
200.4143522628285
 20
123.6859261705366
 30
0.0
 11
166.9486732112486
 21
123.6859261705366
 31
0.0
  0
LWPOLYLINE
  5
1041
330
19
100
AcDbEntity
  8
OUT57
100
AcDbPolyline
 90
       14
 70
     0
 43
0.0
 10
182.7556265149659
 20
183.8598100048589
 10
182.7556265149659
 20
126.1986007082756
 42
-0.4184687266374029
 10
177.6830982967294
 20
121.1991267701937
 10
168.1637407808233
 20
121.3372257077892
 10
158.3180490818238
 20
122.0344952705882
 10
148.4560875625988
 20
123.0650098578756
 10
138.438956455534
 20
124.4320325545995
 10
128.1199328310613
 20
126.1257483268335
 10
117.3583260904152
 20
128.1356167221217
 10
106.0155889660057
 20
130.450406802652
 10
93.95602288693844
 20
133.0578388114072
 10
81.18929072287675
 20
135.9196105326049
 10
68.28191558184099
 20
138.900316410286
 10
61.72232885893654
 20
140.462729287989
  0
LINE
  5
1093
330
19
100
AcDbEntity
  8
OUT57
100
AcDbLine
 10
158.5662200944521
 20
124.8276273884214
 30
0.0
 11
156.2842204484196
 21
125.2021840260815
 31
0.0
  0
LINE
  5
11EF
330
19
100
AcDbEntity
  8
HID34
100
AcDbLine
 10
206.9486668795462
 20
164.9333984512683
 30
0.0
 11
206.9486668795462
 21
186.2454128814958
 31
0.0
  0
LINE
  5
11F0
330
19
100
AcDbEntity
  8
OUT57
100
AcDbLine
 10
158.7699668899944
 20
160.0312869392313
 30
0.0
 11
197.8234363000597
 21
159.9407825770543
 31
0.0
  0
ARC
  5
11F1
330
19
100
AcDbEntity
  8
HID34
100
AcDbCircle
 10
201.9486668795462
 20
164.9333984512683
 30
0.0
 40
5.0
100
AcDbArc
 50
270.0
 51
0.0
  0
LINE
  5
11F2
330
19
100
AcDbEntity
  8
OUT57
100
AcDbLine
 10
166.9486732112486
 20
123.6844856680568
 30
0.0
 11
158.5747305636368
 21
124.8272649267086
 31
0.0
  0
LINE
  5
11F3
330
19
100
AcDbEntity
  8
OUT57
100
AcDbLine
 10
158.5747305636368
 20
124.8272649267086
 30
0.0
 11
148.279887206077
 21
126.5170118642023
 31
0.0
  0
LINE
  5
11F4
330
19
100
AcDbEntity
  8
OUT57
100
AcDbLine
 10
148.279887206077
 20
126.5170118642023
 30
0.0
 11
137.5372667257075
 21
128.5233343313224
 31
0.0
  0
LINE
  5
11F5
330
19
100
AcDbEntity
  8
OUT57
100
AcDbLine
 10
137.5372667257075
 20
128.5233343313224
 30
0.0
 11
126.2083937514437
 21
130.8352950597413
 31
0.0
  0
LINE
  5
11F6
330
19
100
AcDbEntity
  8
OUT57
100
AcDbLine
 10
126.2083937514437
 20
130.8352950597413
 30
0.0
 11
121.8920254073339
 21
131.7685489519809
 31
0.0
  0
ARC
  5
11F7
330
19
100
AcDbEntity
  8
OUT57
100
AcDbCircle
 10
122.9486732112485
 20
136.6556232729302
 30
0.0
 40
5.0
100
AcDbArc
 50
180.0
 51
257.799720716632
  0
LINE
  5
11F8
330
19
100
AcDbEntity
  8
OUT57
100
AcDbLine
 10
117.9486732112485
 20
136.6556232729302
 30
0.0
 11
117.9486732112485
 21
150.0457862676779
 31
0.0
  0
ARC
  5
11F9
330
19
100
AcDbEntity
  8
OUT57
100
AcDbCircle
 10
122.9486732112485
 20
150.0457862676779
 30
0.0
 40
4.999999999999986
100
AcDbArc
 50
90.03166866301085
 51
180.0
  0
LINE
  5
11FA
330
19
100
AcDbEntity
  8
OUT57
100
AcDbLine
 10
122.945909599193
 20
155.0457855039227
 30
0.0
 11
150.0938684331352
 21
155.003742626996
 31
0.0
  0
LINE
  5
11FD
330
19
100
AcDbEntity
  8
HID34
100
AcDbLine
 10
201.0097548770322
 20
159.9333984512683
 30
0.0
 11
201.9486668795462
 21
159.9333984512683
 31
0.0
  0
ARC
  5
1205
330
19
100
AcDbEntity
  8
OUT57
100
AcDbCircle
 10
150.0938684331352
 20
160.003742626996
 30
0.0
 40
5.0
100
AcDbArc
 50
270.0
 51
330.1820650004905
  0
ARC
  5
1206
330
19
100
AcDbEntity
  8
HID34
100
AcDbCircle
 10
159.2976343127416
 20
155.0567496688025
 30
0.0
 40
5.000000000000021
100
AcDbArc
 50
77.24673863666526
 51
282.7532613633347
  0
LINE
  5
121B
330
19
100
AcDbEntity
  8
CTR34
100
AcDbLine
 10
73.5551282082555
 20
113.2107682852563
 30
0.0
 11
73.5551282082555
 21
65.39159926833905
 31
0.0
  0
LINE
  5
121C
330
19
100
AcDbEntity
  8
OUT57
100
AcDbLine
 10
34.33512820825558
 20
108.2107682852563
 30
0.0
 11
34.33512820825555
 21
101.8960907557339
 31
0.0
  0
LINE
  5
121F
330
19
100
AcDbEntity
  8
OUT57
100
AcDbLine
 10
34.33512820825547
 20
101.8607682852562
 30
0.0
 11
73.5551282082555
 21
101.8607682852562
 31
0.0
  0
LINE
  5
1220
330
19
100
AcDbEntity
  8
OUT57
100
AcDbLine
 10
34.33512820825547
 20
108.2107682852563
 30
0.0
 11
73.5551282082555
 21
108.2107682852562
 31
0.0
  0
LINE
  5
1221
330
19
100
AcDbEntity
  8
OUT57
100
AcDbLine
 10
112.7751282082554
 20
108.2107682852562
 30
0.0
 11
112.7751282082554
 21
101.8960907557386
 31
0.0
  0
LINE
  5
1224
330
19
100
AcDbEntity
  8
OUT57
100
AcDbLine
 10
112.7751282082555
 20
101.8607682852561
 30
0.0
 11
73.5551282082555
 21
101.8607682852562
 31
0.0
  0
LINE
  5
1225
330
19
100
AcDbEntity
  8
OUT57
100
AcDbLine
 10
112.7751282082555
 20
108.2107682852562
 30
0.0
 11
73.5551282082555
 21
108.2107682852562
 31
0.0
  0
LINE
  5
1226
330
19
100
AcDbEntity
  8
CTR34
100
AcDbLine
 10
315.1321855671025
 20
95.83047829380135
 30
0.0
 11
395.2982095249911
 21
95.83047829380135
 31
0.0
  0
ARC
  5
1227
330
19
100
AcDbEntity
  8
OUT57
100
AcDbCircle
 10
379.2982095249912
 20
106.8304782938013
 30
0.0
 40
5.0
100
AcDbArc
 50
270.0
 51
0.0000000000032569
  0
LINE
  5
1228
330
19
100
AcDbEntity
  8
OUT57
100
AcDbLine
 10
390.2982095249911
 20
64.48719910777064
 30
0.0
 11
390.298209524991
 21
127.0337660256637
 31
0.0
  0
LINE
  5
1229
330
19
100
AcDbEntity
  8
OUT57
100
AcDbLine
 10
384.2982095249912
 20
106.8304782938015
 30
0.0
 11
384.2982095249906
 21
127.0466858187299
 31
0.0
  0
LINE
  5
122A
330
19
100
AcDbEntity
  8
OUT57
100
AcDbLine
 10
390.2982095249912
 20
64.48719910777064
 30
0.0
 11
372.2982158566936
 21
64.48719910777064
 31
0.0
  0
LINE
  5
122B
330
19
100
AcDbEntity
  8
OUT57
100
AcDbLine
 10
349.2982158566936
 20
64.48719910777064
 30
0.0
 11
344.2982158566936
 21
64.48719910777064
 31
0.0
  0
LINE
  5
122C
330
19
100
AcDbEntity
  8
OUT57
100
AcDbLine
 10
372.2982158566936
 20
76.55623104230582
 30
0.0
 11
372.2982158566936
 21
64.48719910777064
 31
0.0
  0
LINE
  5
122D
330
19
100
AcDbEntity
  8
OUT57
100
AcDbLine
 10
349.2982158566936
 20
64.48719910777064
 30
0.0
 11
349.2982158566936
 21
76.57500391320306
 31
0.0
  0
CIRCLE
  5
122E
330
19
100
AcDbEntity
  8
OUT57
100
AcDbCircle
 10
336.648209524991
 20
95.76048256671709
 30
0.0
 40
1.0
  0
LINE
  5
122F
330
19
100
AcDbEntity
  8
OUT57
100
AcDbLine
 10
390.2982095249912
 20
127.0337660256637
 30
0.0
 11
384.2982095249906
 21
127.0466858187299
 31
0.0
  0
LINE
  5
1230
330
19
100
AcDbEntity
  8
OUT57
100
AcDbLine
 10
337.0164556774415
 20
76.60145021320378
 30
0.0
 11
349.2982158566936
 21
76.57500391320306
 31
0.0
  0
LINE
  5
1231
330
19
100
AcDbEntity
  8
OUT57
100
AcDbLine
 10
358.0164069923038
 20
76.55623104230582
 30
0.0
 11
358.0347099900482
 21
85.05621133641672
 31
0.0
  0
LINE
  5
1233
330
19
100
AcDbEntity
  8
OUT57
100
AcDbLine
 10
337.034758675186
 20
85.10143050731466
 30
0.0
 11
337.0164556774415
 21
76.60145021320378
 31
0.0
  0
LINE
  5
1234
330
19
100
AcDbEntity
  8
OUT57
100
AcDbLine
 10
358.0164069923038
 20
76.55623104230582
 30
0.0
 11
372.2982158566936
 21
76.55623104230582
 31
0.0
  0
LINE
  5
1235
330
19
100
AcDbEntity
  8
OUT57
100
AcDbLine
 10
336.648209524991
 20
121.6110972127569
 30
0.0
 11
364.2694694826379
 21
118.5242836459449
 31
0.0
  0
LINE
  5
1236
330
19
100
AcDbEntity
  8
OUT57
100
AcDbLine
 10
336.648209524991
 20
111.6110972127569
 30
0.0
 11
364.2694694826379
 21
114.6979107795688
 31
0.0
  0
CIRCLE
  5
1237
330
19
100
AcDbEntity
  8
OUT57
100
AcDbCircle
 10
336.648209524991
 20
116.6110972127569
 30
0.0
 40
1.0
  0
ARC
  5
1238
330
19
100
AcDbEntity
  8
OUT57
100
AcDbCircle
 10
336.648209524991
 20
116.6110972127569
 30
0.0
 40
5.000000000000073
100
AcDbArc
 50
90.00000000000651
 51
269.9999999999935
  0
ARC
  5
1239
330
19
100
AcDbEntity
  8
OUT57
100
AcDbCircle
 10
359.0366642330432
 20
-75.19808202965615
 30
0.0
 40
192.6948007801758
100
AcDbArc
 50
88.44388890290085
 51
95.5801917050869
  0
LINE
  5
123A
330
19
100
AcDbEntity
  8
OUT57
100
AcDbLine
 10
364.2694694826379
 20
118.5242836459449
 30
0.0
 11
364.2694694826379
 21
117.4256548174195
 31
0.0
  0
LINE
  5
123B
330
19
100
AcDbEntity
  8
OUT57
100
AcDbLine
 10
364.2694694826379
 20
115.7414509836264
 30
0.0
 11
364.2694694826379
 21
114.6979107795688
 31
0.0
  0
ARC
  5
123C
330
19
100
AcDbEntity
  8
OUT57
100
AcDbCircle
 10
359.0366642330432
 20
308.365187830702
 30
0.0
 40
192.6948007801758
100
AcDbArc
 50
264.4198082949131
 51
271.5561110970992
  0
LINE
  5
1365
330
19
100
AcDbEntity
  8
OUT57
100
AcDbLine
 10
76.7551282082555
 20
101.8607682852562
 30
0.0
 11
76.7551282082555
 21
65.39159926833905
 31
0.0
  0
LINE
  5
1366
330
19
100
AcDbEntity
  8
OUT57
100
AcDbLine
 10
70.35512820825551
 20
101.8607682852562
 30
0.0
 11
70.3551282082555
 21
65.39159926833905
 31
0.0
  0
LINE
  5
1369
330
19
100
AcDbEntity
  8
OUT57
100
AcDbLine
 10
34.33512820825546
 20
98.66076828525624
 30
0.0
 11
70.35512820825551
 21
98.6607682852562
 31
0.0
  0
LINE
  5
136A
330
19
100
AcDbEntity
  8
OUT57
100
AcDbLine
 10
112.7751282082555
 20
98.66076828525613
 30
0.0
 11
76.75512820825551
 21
98.6607682852562
 31
0.0
  0
LINE
  5
136B
330
19
100
AcDbEntity
  8
OUT57
100
AcDbLine
 10
34.33512820825546
 20
105.0107682852563
 30
0.0
 11
73.5551282082555
 21
105.0107682852562
 31
0.0
  0
LINE
  5
136C
330
19
100
AcDbEntity
  8
OUT57
100
AcDbLine
 10
112.7751282082555
 20
105.0107682852561
 30
0.0
 11
73.5551282082555
 21
105.0107682852562
 31
0.0
  0
LINE
  5
136D
330
19
100
AcDbEntity
  8
OUT57
100
AcDbLine
 10
73.80512820825551
 20
101.8607682852562
 30
0.0
 11
73.8051282082555
 21
65.39159926833905
 31
0.0
  0
LINE
  5
136E
330
19
100
AcDbEntity
  8
CTR34
100
AcDbLine
 10
73.5551282082555
 20
101.8607682852562
 30
0.0
 11
73.55512820825551
 21
60.39159926833911
 31
0.0
  0
LINE
  5
136F
330
19
100
AcDbEntity
  8
OUT57
100
AcDbLine
 10
73.30512820825551
 20
101.8607682852562
 30
0.0
 11
73.3051282082555
 21
65.39159926833909
 31
0.0
  0
LINE
  5
1370
330
19
100
AcDbEntity
  8
OUT57
100
AcDbLine
 10
22.71889479383658
 20
108.2107682852561
 30
0.0
 11
22.71889479383664
 21
65.39159926833901
 31
0.0
  0
LINE
  5
1371
330
19
100
AcDbEntity
  8
OUT57
100
AcDbLine
 10
24.31889479383661
 20
108.2107682852561
 30
0.0
 11
24.31889479383663
 21
65.39159926833901
 31
0.0
  0
LINE
  5
1372
330
19
100
AcDbEntity
  8
OUT57
100
AcDbLine
 10
27.51889479383659
 20
108.2107682852561
 30
0.0
 11
27.51889479383659
 21
105.0107682852561
 31
0.0
  0
LINE
  5
1374
330
19
100
AcDbEntity
  8
OUT57
100
AcDbLine
 10
27.51889479383659
 20
108.2107682852561
 30
0.0
 11
24.31889479383661
 21
108.2107682852561
 31
0.0
  0
LINE
  5
1375
330
19
100
AcDbEntity
  8
OUT57
100
AcDbLine
 10
24.31889479383661
 20
108.2107682852561
 30
0.0
 11
22.71889479383661
 21
108.2107682852561
 31
0.0
  0
LINE
  5
1377
330
19
100
AcDbEntity
  8
OUT57
100
AcDbLine
 10
27.51889479383659
 20
105.0107682852561
 30
0.0
 11
24.31889479383661
 21
105.0107682852561
 31
0.0
  0
LINE
  5
1379
330
19
100
AcDbEntity
  8
OUT57
100
AcDbLine
 10
27.51889479383659
 20
101.8607682852561
 30
0.0
 11
24.31889479383661
 21
101.8607682852561
 31
0.0
  0
LINE
  5
137B
330
19
100
AcDbEntity
  8
OUT57
100
AcDbLine
 10
27.51889479383659
 20
98.66076828525608
 30
0.0
 11
24.31889479383661
 21
98.66076828525608
 31
0.0
  0
LINE
  5
137C
330
19
100
AcDbEntity
  8
OUT57
100
AcDbLine
 10
27.51889479383659
 20
101.8607682852561
 30
0.0
 11
27.51889479383659
 21
98.6607682852561
 31
0.0
  0
LINE
  5
137D
330
19
100
AcDbEntity
  8
OUT57
100
AcDbLine
 10
27.51889479383659
 20
65.39159926833901
 30
0.0
 11
24.31889479383663
 21
65.39159926833901
 31
0.0
  0
LINE
  5
137E
330
19
100
AcDbEntity
  8
OUT57
100
AcDbLine
 10
24.31889479383663
 20
65.39159926833901
 30
0.0
 11
22.71889479383664
 21
65.39159926833901
 31
0.0
  0
LINE
  5
137F
330
19
100
AcDbEntity
  8
OUT57
100
AcDbLine
 10
27.51889479383659
 20
98.66076828525608
 30
0.0
 11
27.51889479383662
 21
65.39159926833902
 31
0.0
  0
LWPOLYLINE
  5
13D6
330
19
100
AcDbEntity
  8
OUT57
100
AcDbPolyline
 90
       62
 70
     0
 43
0.0
 10
31.37189499633241
 20
167.0371700574053
 10
34.4317830203784
 20
167.9206491840841
 10
43.62159783519323
 20
170.3220507401138
 10
54.75585709445247
 20
173.0762304320555
 10
67.14011635371173
 20
176.0260086673087
 10
80.07993116852654
 20
179.0142058532725
 10
92.88085709445247
 20
181.8836423973464
 10
104.9873415528048
 20
184.5012187581574
 10
116.3993994279382
 20
186.8301555992439
 10
127.2559374699669
 20
188.857753635372
 10
137.6958624290051
 20
190.5713135813079
 10
147.8580810551673
 20
191.9581361518178
 10
157.8815000985677
 20
193.0055220616678
 10
167.8818662536889
 20
193.7137456329502
 10
177.8822859924863
 20
194.1349756170623
 10
187.8827057312838
 20
194.3343543727274
 10
197.8830718864049
 20
194.3770242586689
 10
207.8833308741736
 20
194.3281276336101
 10
217.8834291109135
 20
194.2528068562745
 10
227.9064790223218
 20
194.1750695333018
 10
238.0682570715902
 20
193.9543842629975
 10
248.5077057312839
 20
193.4090848915832
 10
259.3637674739679
 20
192.3575052652809
 10
270.7753847722075
 20
190.6179792303124
 10
282.8815000985678
 20
188.0088406328995
 10
295.7562292033155
 20
184.3998601930189
 10
309.2143809475237
 20
179.8665561256668
 10
323.0059374699669
 20
174.5358835195944
 10
336.8808809094198
 20
168.534797463553
 10
350.5891934046568
 20
161.9902530462935
 10
362.1893544147048
 20
155.9150711966776
 42
-0.6051237986473823
 10
362.1893544147048
 20
154.143339516457
 10
350.5891934046568
 20
148.068157666841
 10
336.8808809094198
 20
141.5236132495815
 10
323.0059374699669
 20
135.52252719354
 10
309.2143809475237
 20
130.1918545874677
 10
295.7562292033155
 20
125.6585505201156
 10
282.8815000985678
 20
122.049570080235
 10
270.7753847722075
 20
119.440431482822
 10
259.3637674739679
 20
117.7009054478535
 10
248.5077057312839
 20
116.6493258215512
 10
238.0682570715902
 20
116.104026450137
 10
227.9064790223218
 20
115.8833411798327
 10
217.8834291109135
 20
115.8056038568599
 10
207.8833308741736
 20
115.7302830795243
 10
197.8830718864049
 20
115.6813864544656
 10
187.8827057312838
 20
115.7240563404071
 10
177.8822859924863
 20
115.9234350960722
 10
167.8818662536889
 20
116.3446650801843
 10
157.8815000985677
 20
117.0528886514667
 10
147.8580810551673
 20
118.1002745613167
 10
137.6958624290051
 20
119.4870971318265
 10
127.2559374699669
 20
121.2006570777625
 10
116.3993994279382
 20
123.2282551138906
 10
104.9873415528048
 20
125.557191954977
 10
92.88085709445247
 20
128.174768315788
 10
80.07993116852654
 20
131.0442048598619
 10
67.14011635371173
 20
134.0324020458258
 10
54.75585709445247
 20
136.982180281079
 10
43.62159783519323
 20
139.7363599730207
 10
34.4317830203784
 20
142.1377615290504
 10
31.37189499633239
 20
143.0212406557292
  0
LWPOLYLINE
  5
1413
330
19
100
AcDbEntity
  8
OUT57
100
AcDbPolyline
 90
       14
 70
     0
 43
0.0
 10
217.8864491583145
 20
194.2527834332245
 10
247.6850191684467
 20
191.7973340345106
 10
276.2899214096709
 20
186.1774157533675
 10
302.5065561024352
 20
178.5418361673985
 10
325.1403234671881
 20
170.0394028542065
 10
342.9966237243776
 20
161.8189233913951
 10
353.363776523033
 20
155.8959461041858
 42
-0.57986447186783
 10
353.3651064663629
 20
154.1601409071695
 10
342.9966237243776
 20
148.2153109475005
 10
325.140323467188
 20
139.9786253437159
 10
302.5065561024352
 20
131.4663620761633
 10
276.2899214096707
 20
123.8257346757928
 10
247.6850191684466
 20
118.2039566735546
 10
217.8834291109135
 20
115.8056038568599
  0
LINE
  5
1433
330
19
100
AcDbEntity
  8
OUT57
100
AcDbLine
 10
217.8847151191439
 20
155.0292053565672
 30
0.0
 11
237.832250857336
 21
155.0292053565672
 31
0.0
  0
ARC
  5
144D
330
19
100
AcDbEntity
  8
OUT57
100
AcDbCircle
 10
247.8609283533032
 20
53.16714084113979
 30
0.0
 40
2.109588574652086
100
AcDbArc
 50
305.1989569151767
 51
58.80104308481513
  0
LINE
  5
144E
330
19
100
AcDbEntity
  8
OUT51
100
AcDbLine
 10
250.0745235081935
 20
53.24444128729166
 30
0.0
 11
125.1506701308069
 21
48.88200419947977
 31
0.0
  0
POLYLINE
  5
1471
330
19
100
AcDbEntity
  8
OUT57
100
AcDb2dPolyline
 66
     1
 10
0.0
 20
0.0
 30
0.0
 70
     4
 75
     6
  0
VERTEX
  5
1472
330
1471
100
AcDbEntity
  8
OUT57
100
AcDbVertex
100
AcDb2dVertex
 10
249.0769319983989
 20
51.44327916182308
 30
0.0
 70
    16
  0
VERTEX
  5
1473
330
1471
100
AcDbEntity
  8
OUT57
100
AcDbVertex
100
AcDb2dVertex
 10
249.0769319983989
 20
51.44327916182308
 30
0.0
 70
     8
  0
VERTEX
  5
1474
330
1471
100
AcDbEntity
  8
OUT57
100
AcDbVertex
100
AcDb2dVertex
 10
244.9403475867575
 20
49.13096471326903
 30
0.0
 70
     8
  0
VERTEX
  5
1475
330
1471
100
AcDbEntity
  8
OUT57
100
AcDbVertex
100
AcDb2dVertex
 10
241.3856343767346
 20
47.31902119668816
 30
0.0
 70
     8
  0
VERTEX
  5
1476
330
1471
100
AcDbEntity
  8
OUT57
100
AcDbVertex
100
AcDb2dVertex
 10
238.3212709801795
 20
45.9293509441116
 30
0.0
 70
     8
  0
VERTEX
  5
1477
330
1471
100
AcDbEntity
  8
OUT57
100
AcDbVertex
100
AcDb2dVertex
 10
235.655736008941
 20
44.88385628757097
 30
0.0
 70
     8
  0
VERTEX
  5
1478
330
1471
100
AcDbEntity
  8
OUT57
100
AcDbVertex
100
AcDb2dVertex
 10
233.2975080748684
 20
44.10443955909718
 30
0.0
 70
     8
  0
VERTEX
  5
1479
330
1471
100
AcDbEntity
  8
OUT57
100
AcDbVertex
100
AcDb2dVertex
 10
231.155065789811
 20
43.51300309072214
 30
0.0
 70
     8
  0
VERTEX
  5
147A
330
1471
100
AcDbEntity
  8
OUT57
100
AcDbVertex
100
AcDb2dVertex
 10
229.1402314763744
 20
43.04049405678395
 30
0.0
 70
     8
  0
VERTEX
  5
147B
330
1471
100
AcDbEntity
  8
OUT57
100
AcDbVertex
100
AcDb2dVertex
 10
227.1782023001907
 20
42.65403900084933
 30
0.0
 70
     8
  0
VERTEX
  5
147C
330
1471
100
AcDbEntity
  8
OUT57
100
AcDbVertex
100
AcDb2dVertex
 10
225.1975191376483
 20
42.32980930879213
 30
0.0
 70
     8
  0
VERTEX
  5
147D
330
1471
100
AcDbEntity
  8
OUT57
100
AcDbVertex
100
AcDb2dVertex
 10
223.126722865137
 20
42.04397636648621
 30
0.0
 70
     8
  0
VERTEX
  5
147E
330
1471
100
AcDbEntity
  8
OUT57
100
AcDbVertex
100
AcDb2dVertex
 10
220.8943543590444
 20
41.77271155980551
 30
0.0
 70
     8
  0
VERTEX
  5
147F
330
1471
100
AcDbEntity
  8
OUT57
100
AcDbVertex
100
AcDb2dVertex
 10
218.4289544957608
 20
41.49218627462354
 30
0.0
 70
     8
  0
VERTEX
  5
1480
330
1471
100
AcDbEntity
  8
OUT57
100
AcDbVertex
100
AcDb2dVertex
 10
215.6606872490096
 20
41.18979057794828
 30
0.0
 70
     8
  0
VERTEX
  5
1481
330
1471
100
AcDbEntity
  8
OUT57
100
AcDbVertex
100
AcDb2dVertex
 10
212.5262089818607
 20
40.89778926132359
 30
0.0
 70
     8
  0
VERTEX
  5
1482
330
1471
100
AcDbEntity
  8
OUT57
100
AcDbVertex
100
AcDb2dVertex
 10
208.9637991547182
 20
40.65966579742706
 30
0.0
 70
     8
  0
VERTEX
  5
1483
330
1471
100
AcDbEntity
  8
OUT57
100
AcDbVertex
100
AcDb2dVertex
 10
204.9117372279886
 20
40.51890365893657
 30
0.0
 70
     8
  0
VERTEX
  5
1484
330
1471
100
AcDbEntity
  8
OUT57
100
AcDbVertex
100
AcDb2dVertex
 10
200.3083026620752
 20
40.51898631853
 30
0.0
 70
     8
  0
VERTEX
  5
1485
330
1471
100
AcDbEntity
  8
OUT57
100
AcDbVertex
100
AcDb2dVertex
 10
195.0917749173843
 20
40.70339724888512
 30
0.0
 70
     8
  0
VERTEX
  5
1486
330
1471
100
AcDbEntity
  8
OUT57
100
AcDbVertex
100
AcDb2dVertex
 10
189.1019859144837
 20
41.11471058444118
 30
0.0
 70
     8
  0
VERTEX
  5
1487
330
1471
100
AcDbEntity
  8
OUT57
100
AcDbVertex
100
AcDb2dVertex
 10
181.7849774145962
 20
41.79186310668384
 30
0.0
 70
     8
  0
VERTEX
  5
1488
330
1471
100
AcDbEntity
  8
OUT57
100
AcDbVertex
100
AcDb2dVertex
 10
172.4883436391075
 20
42.77288225886044
 30
0.0
 70
     8
  0
VERTEX
  5
1489
330
1471
100
AcDbEntity
  8
OUT57
100
AcDbVertex
100
AcDb2dVertex
 10
160.5596788094038
 20
44.09579548421785
 30
0.0
 70
     8
  0
VERTEX
  5
148A
330
1471
100
AcDbEntity
  8
OUT57
100
AcDbVertex
100
AcDb2dVertex
 10
145.3465771468707
 20
45.79863022600366
 30
0.0
 70
     8
  0
VERTEX
  5
148B
330
1471
100
AcDbEntity
  8
OUT57
100
AcDbVertex
100
AcDb2dVertex
 10
126.1966328728942
 20
47.91941392746494
 30
0.0
 70
     8
  0
VERTEX
  5
148C
330
1471
100
AcDbEntity
  8
OUT57
100
AcDbVertex
100
AcDb2dVertex
 10
240.1608777147305
 20
46.26621422076308
 30
0.0
 70
    16
  0
VERTEX
  5
148D
330
1471
100
AcDbEntity
  8
OUT57
100
AcDbVertex
100
AcDb2dVertex
 10
230.4094802246262
 20
42.85370753794296
 30
0.0
 70
    16
  0
VERTEX
  5
148E
330
1471
100
AcDbEntity
  8
OUT57
100
AcDbVertex
100
AcDb2dVertex
 10
220.2558973805793
 20
41.69072083038747
 30
0.0
 70
    16
  0
VERTEX
  5
148F
330
1471
100
AcDbEntity
  8
OUT57
100
AcDbVertex
100
AcDb2dVertex
 10
199.1406572276219
 20
39.33652678824856
 30
0.0
 70
    16
  0
VERTEX
  5
1490
330
1471
100
AcDbEntity
  8
OUT57
100
AcDbVertex
100
AcDb2dVertex
 10
168.8683012180329
 20
43.23454593603545
 30
0.0
 70
    16
  0
VERTEX
  5
1491
330
1471
100
AcDbEntity
  8
OUT57
100
AcDbVertex
100
AcDb2dVertex
 10
126.1966328728942
 20
47.91941392746494
 30
0.0
 70
    16
  0
SEQEND
  5
1492
330
1471
100
AcDbEntity
  8
OUT57
  0
ARC
  5
1493
330
19
100
AcDbEntity
  8
OUT57
100
AcDbCircle
 10
126.3335573558966
 20
48.92331153160186
 30
0.0
 40
1.015821157973977
100
AcDbArc
 50
100.3158379452801
 51
268.0495931783437
  0
LINE
  5
14AF
330
19
100
AcDbEntity
  8
OUT57
100
AcDbLine
 10
344.1859470833199
 20
64.49805443028472
 30
0.0
 11
335.812004435708
 21
65.64083368893657
 31
0.0
  0
LINE
  5
14B0
330
19
100
AcDbEntity
  8
OUT57
100
AcDbLine
 10
335.812004435708
 20
65.64083368893657
 30
0.0
 11
325.5171610781483
 21
67.33058062643025
 31
0.0
  0
LINE
  5
14B1
330
19
100
AcDbEntity
  8
OUT57
100
AcDbLine
 10
325.5171610781483
 20
67.33058062643025
 30
0.0
 11
314.7745405977787
 21
69.33690309355038
 31
0.0
  0
LINE
  5
14B2
330
19
100
AcDbEntity
  8
OUT57
100
AcDbLine
 10
314.7745405977787
 20
69.33690309355038
 30
0.0
 11
303.445667623515
 21
71.64886382196929
 31
0.0
  0
LINE
  5
14B3
330
19
100
AcDbEntity
  8
OUT57
100
AcDbLine
 10
303.445667623515
 20
71.64886382196929
 30
0.0
 11
299.1292992794051
 21
72.58211771420886
 31
0.0
  0
ARC
  5
14B4
330
19
100
AcDbEntity
  8
OUT57
100
AcDbCircle
 10
300.1859470833196
 20
77.46919203515819
 30
0.0
 40
4.999999999999957
100
AcDbArc
 50
180.0000000000004
 51
257.7997207166325
  0
LINE
  5
14B5
330
19
100
AcDbEntity
  8
OUT57
100
AcDbLine
 10
295.1859470833197
 20
77.46919203515816
 30
0.0
 11
295.1859470833198
 21
90.85935502990586
 31
0.0
  0
ARC
  5
14B6
330
19
100
AcDbEntity
  8
OUT57
100
AcDbCircle
 10
300.1859470833198
 20
90.85935502990587
 30
0.0
 40
5.0
100
AcDbArc
 50
90.03166866301164
 51
180.0000000000002
  0
LINE
  5
14B7
330
19
100
AcDbEntity
  8
OUT57
100
AcDbLine
 10
300.1831834712642
 20
95.85935426615063
 30
0.0
 11
327.2723383321869
 21
95.8743270514273
 31
0.0
  0
ARC
  5
14B8
330
19
100
AcDbEntity
  8
OUT57
100
AcDbCircle
 10
327.0252410275774
 20
100.8682176111066
 30
0.0
 40
4.999999999999964
100
AcDbArc
 50
270.0316686630117
 51
320.6217366477453
  0
LINE
  5
14B9
330
19
100
AcDbEntity
  8
OUT57
100
AcDbLine
 10
330.8901126248365
 20
97.69603105658318
 30
0.0
 11
332.7833379277319
 21
100.0026648483248
 31
0.0
  0
ARC
  5
14BA
330
19
100
AcDbEntity
  8
OUT57
100
AcDbCircle
 10
336.648209524991
 20
96.83047829380133
 30
0.0
 40
5.000000000000012
100
AcDbArc
 50
90.0
 51
140.6217366477445
  0
LINE
  5
14BB
330
19
100
AcDbEntity
  8
OUT57
100
AcDbLine
 10
336.648209524991
 20
101.8304782938013
 30
0.0
 11
379.2982095249912
 21
101.8304782938013
 31
0.0
  0
LINE
  5
1775
330
19
100
AcDbEntity
  8
BOR715
 62
    15
100
AcDbLine
 10
317.6561643868932
 20
28.88849780305764
 30
0.0
 11
432.7890664963305
 21
28.88849780305764
 31
0.0
  0
TEXT
  5
1779
330
19
100
AcDbEntity
  8
TXT34
 62
     3
100
AcDbText
 10
318.4569795101308
 20
25.66212361343646
 30
0.0
 40
1.9796
  1
2
100
AcDbText
  0
LINE
  5
1C64
330
19
100
AcDbEntity
  8
CTR34
100
AcDbLine
 10
64.85810430890129
 20
231.5106898134629
 30
0.0
 11
58.30311257904523
 21
227.6466410473523
 31
0.0
  0
LINE
  5
1C65
330
19
100
AcDbEntity
  8
CTR34
100
AcDbLine
 10
64.85810430890129
 20
231.5106898134629
 30
0.0
 11
64.85810430890129
 21
291.5295525034614
 31
0.0
  0
LINE
  5
1C67
330
19
100
AcDbEntity
  8
OUT57
100
AcDbLine
 10
47.83377139099471
 20
148.2374417619294
 30
0.0
 11
66.77967650845268
 21
146.9126150176814
 31
0.0
  0
ARC
  5
1C68
330
19
100
AcDbEntity
  8
OUT57
100
AcDbCircle
 10
67.12845887717332
 20
151.9004352689805
 30
0.0
 40
5.0
100
AcDbArc
 50
266.0000000000001
 51
356.0000000000002
  0
LINE
  5
1C69
330
19
100
AcDbEntity
  8
OUT57
100
AcDbLine
 10
47.83377139099471
 20
148.2374417619294
 30
0.0
 11
35.38019435555203
 21
276.7999335934469
 31
0.0
  0
LINE
  5
1C6A
330
19
100
AcDbEntity
  8
OUT57
100
AcDbLine
 10
72.11627912847244
 20
151.5516529002599
 30
0.0
 11
79.78401694810461
 21
261.2054124027936
 31
0.0
  0
ARC
  5
1C6D
330
19
100
AcDbEntity
  8
OUT57
100
AcDbCircle
 10
29.3357552609607
 20
280.9591431319347
 30
0.0
 40
0.5000000000001383
100
AcDbArc
 50
241.9327989472395
 51
243.2378371357568
  0
ARC
  5
1C6E
330
19
100
AcDbEntity
  8
OUT57
100
AcDbCircle
 10
61.38260704138281
 20
268.2897664636748
 30
0.0
 40
0.5000000000023911
100
AcDbArc
 50
251.8057629065886
 51
252.0662365213902
  0
ARC
  5
1C71
330
19
100
AcDbEntity
  8
OUT57
100
AcDbCircle
 10
32.17128731114542
 20
279.529162381222
 30
0.0
 40
0.5000000000043746
100
AcDbArc
 50
243.2378371357701
 51
244.5682313011912
  0
ARC
  5
1C72
330
19
100
AcDbEntity
  8
OUT57
100
AcDbCircle
 10
59.3210286805886
 20
268.9673491761686
 30
0.0
 40
0.4999999999900585
100
AcDbArc
 50
251.5336527533323
 51
251.8057629092641
  0
ARC
  5
1C75
330
19
100
AcDbEntity
  8
OUT57
100
AcDbCircle
 10
34.76494264664393
 20
278.2958414707966
 30
0.0
 40
0.4999999999972025
100
AcDbArc
 50
244.5682313016532
 51
245.8491226519878
  0
ARC
  5
1C76
330
19
100
AcDbEntity
  8
OUT57
100
AcDbCircle
 10
57.28452748030611
 20
269.6474231525459
 30
0.0
 40
0.4999999999841906
100
AcDbArc
 50
251.2482677705655
 51
251.5336527540838
  0
ARC
  5
1C79
330
19
100
AcDbEntity
  8
OUT57
100
AcDbCircle
 10
37.15878445334261
 20
277.2224722503163
 30
0.0
 40
0.500000000002809
100
AcDbArc
 50
245.849122652273
 51
246.9791350533209
  0
ARC
  5
1C7A
330
19
100
AcDbEntity
  8
OUT57
100
AcDbCircle
 10
55.27631846109807
 20
270.3291859680636
 30
0.0
 40
0.5000000000157149
100
AcDbArc
 50
250.9477698772055
 51
251.2482677722314
  0
ARC
  5
1C7D
330
19
100
AcDbEntity
  8
OUT57
100
AcDbCircle
 10
39.39487591711304
 20
276.2723465694031
 30
0.0
 40
0.5000000000058188
100
AcDbArc
 50
246.9791350525493
 51
247.840100018763
  0
ARC
  5
1C7E
330
19
100
AcDbEntity
  8
OUT57
100
AcDbCircle
 10
53.29961664354983
 20
271.0118351978396
 30
0.0
 40
0.4999999999907803
100
AcDbArc
 50
250.6230287202095
 51
250.9477698750056
  0
ARC
  5
1C81
330
19
100
AcDbEntity
  8
OUT57
100
AcDbCircle
 10
41.51528022380523
 20
275.4087562776941
 30
0.0
 40
0.4999999999971282
100
AcDbArc
 50
247.8401000191608
 51
248.3943459108937
  0
ARC
  5
1C82
330
19
100
AcDbEntity
  8
OUT57
100
AcDbCircle
 10
51.35409159497851
 20
271.696083911592
 30
0.0
 40
0.5000000000091958
100
AcDbArc
 50
250.2475910415063
 51
250.6230287195849
  0
ARC
  5
1C85
330
19
100
AcDbEntity
  8
OUT57
100
AcDbCircle
 10
43.55805964482761
 20
274.5997294929776
 30
0.0
 40
0.500000000002429
100
AcDbArc
 50
248.3943459096603
 51
248.8827274052355
  0
ARC
  5
1C86
330
19
100
AcDbEntity
  8
OUT57
100
AcDbCircle
 10
49.42523106973283
 20
272.3887071564179
 30
0.0
 40
0.500000000010748
100
AcDbArc
 50
249.8237098889794
 51
250.2475910394809
  0
ARC
  5
1C89
330
19
100
AcDbEntity
  8
OUT57
100
AcDbCircle
 10
45.5452727935409
 20
273.832239405557
 30
0.0
 40
0.4999999999984193
100
AcDbArc
 50
248.8827274058554
 51
249.3640072196696
  0
ARC
  5
1C8A
330
19
100
AcDbEntity
  8
OUT57
100
AcDbCircle
 10
47.49497736887383
 20
273.097995473884
 30
0.0
 40
0.49999999999751
100
AcDbArc
 50
249.3640072194491
 51
249.8237098900172
  0
POLYLINE
  5
1C8C
330
19
100
AcDbEntity
  8
OUT57
100
AcDb2dPolyline
 66
     1
 10
0.0
 20
0.0
 30
0.0
  0
VERTEX
  5
3910
330
1C8C
100
AcDbEntity
  8
OUT57
100
AcDbVertex
100
AcDb2dVertex
 10
35.26775323421787
 20
277.9607013553444
 30
0.0
  0
VERTEX
  5
3911
330
1C8C
100
AcDbEntity
  8
OUT57
100
AcDbVertex
100
AcDb2dVertex
 10
36.42951643087224
 20
277.4082660244905
 30
0.0
  0
VERTEX
  5
3912
330
1C8C
100
AcDbEntity
  8
OUT57
100
AcDbVertex
100
AcDb2dVertex
 10
38.82335823757091
 20
276.3348968040042
 30
0.0
  0
VERTEX
  5
3913
330
1C8C
100
AcDbEntity
  8
OUT57
100
AcDbVertex
100
AcDb2dVertex
 10
41.05944970133407
 20
275.3847711230908
 30
0.0
  0
VERTEX
  5
3914
330
1C8C
100
AcDbEntity
  8
OUT57
100
AcDbVertex
100
AcDb2dVertex
 10
43.17985400803272
 20
274.5211808313886
 30
0.0
  0
VERTEX
  5
3915
330
1C8C
100
AcDbEntity
  8
OUT57
100
AcDbVertex
100
AcDb2dVertex
 10
45.22263342904321
 20
273.7121540466712
 30
0.0
  0
VERTEX
  5
3916
330
1C8C
100
AcDbEntity
  8
OUT57
100
AcDbVertex
100
AcDb2dVertex
 10
47.20984657776293
 20
272.9446639592522
 30
0.0
  0
VERTEX
  5
3917
330
1C8C
100
AcDbEntity
  8
OUT57
100
AcDbVertex
100
AcDb2dVertex
 10
49.15955115309444
 20
272.2104200275807
 30
0.0
  0
VERTEX
  5
3918
330
1C8C
100
AcDbEntity
  8
OUT57
100
AcDbVertex
100
AcDb2dVertex
 10
51.08980485394034
 20
271.5011317101053
 30
0.0
  0
VERTEX
  5
3919
330
1C8C
100
AcDbEntity
  8
OUT57
100
AcDbVertex
100
AcDb2dVertex
 10
53.01866537920324
 20
270.8085084652748
 30
0.0
  0
VERTEX
  5
391A
330
1C8C
100
AcDbEntity
  8
OUT57
100
AcDbVertex
100
AcDb2dVertex
 10
54.96419042778578
 20
270.124259751538
 30
0.0
  0
VERTEX
  5
391B
330
1C8C
100
AcDbEntity
  8
OUT57
100
AcDbVertex
100
AcDb2dVertex
 10
56.94089224534409
 20
269.4416105217322
 30
0.0
  0
VERTEX
  5
391C
330
1C8C
100
AcDbEntity
  8
OUT57
100
AcDbVertex
100
AcDb2dVertex
 10
58.94910126454849
 20
268.7598477062491
 30
0.0
  0
VERTEX
  5
391D
330
1C8C
100
AcDbEntity
  8
OUT57
100
AcDbVertex
100
AcDb2dVertex
 10
60.98560246482282
 20
268.0797737298685
 30
0.0
  0
VERTEX
  5
391E
330
1C8C
100
AcDbEntity
  8
OUT57
100
AcDbVertex
100
AcDb2dVertex
 10
63.04718082559097
 20
267.4021910173702
 30
0.0
  0
VERTEX
  5
391F
330
1C8C
100
AcDbEntity
  8
OUT57
100
AcDbVertex
100
AcDb2dVertex
 10
65.13062132627684
 20
266.7279019935345
 30
0.0
  0
VERTEX
  5
3920
330
1C8C
100
AcDbEntity
  8
OUT57
100
AcDbVertex
100
AcDb2dVertex
 10
67.23270894630431
 20
266.0577090831412
 30
0.0
  0
VERTEX
  5
3921
330
1C8C
100
AcDbEntity
  8
OUT57
100
AcDbVertex
100
AcDb2dVertex
 10
69.35022866509715
 20
265.3924147109703
 30
0.0
  0
VERTEX
  5
3922
330
1C8C
100
AcDbEntity
  8
OUT57
100
AcDbVertex
100
AcDb2dVertex
 10
71.47996546207932
 20
264.7328213018017
 30
0.0
  0
VERTEX
  5
3923
330
1C8C
100
AcDbEntity
  8
OUT57
100
AcDbVertex
100
AcDb2dVertex
 10
73.61870431667467
 20
264.0797312804156
 30
0.0
  0
VERTEX
  5
3924
330
1C8C
100
AcDbEntity
  8
OUT57
100
AcDbVertex
100
AcDb2dVertex
 10
73.88085709445224
 20
264.0007888321809
 30
0.0
  0
SEQEND
  5
3925
330
1C8C
100
AcDbEntity
  8
OUT57
  0
POLYLINE
  5
1D54
330
19
100
AcDbEntity
  8
OUT57
100
AcDb2dPolyline
 66
     1
 10
0.0
 20
0.0
 30
0.0
  0
VERTEX
  5
1D55
330
1D54
100
AcDbEntity
  8
OUT57
100
AcDbVertex
100
AcDb2dVertex
 10
162.6647988375921
 20
56.58754690706045
 30
0.0
  0
VERTEX
  5
1D56
330
1D54
100
AcDbEntity
  8
OUT57
100
AcDbVertex
100
AcDb2dVertex
 10
160.139524333867
 20
56.12744546364447
 30
0.0
  0
VERTEX
  5
1D57
330
1D54
100
AcDbEntity
  8
OUT57
100
AcDbVertex
100
AcDb2dVertex
 10
145.0822353487781
 20
53.36838890944937
 30
0.0
  0
VERTEX
  5
1D58
330
1D54
100
AcDbEntity
  8
OUT57
100
AcDbVertex
100
AcDb2dVertex
 10
126.1268338794891
 20
49.91819558150322
 30
0.0
  0
SEQEND
  5
1D59
330
1D54
100
AcDbEntity
  8
OUT57
  0
POLYLINE
  5
1D5A
330
19
100
AcDbEntity
  8
OUT57
100
AcDb2dPolyline
 66
     1
 10
0.0
 20
0.0
 30
0.0
  0
VERTEX
  5
1D5B
330
1D5A
100
AcDbEntity
  8
OUT57
100
AcDbVertex
100
AcDb2dVertex
 10
248.953719362664
 20
54.9716274063885
 30
0.0
  0
VERTEX
  5
1D5C
330
1D5A
100
AcDbEntity
  8
OUT57
100
AcDbVertex
100
AcDb2dVertex
 10
244.6659125606266
 20
56.98975563126137
 30
0.0
  0
VERTEX
  5
1D5D
330
1D5A
100
AcDbEntity
  8
OUT57
100
AcDbVertex
100
AcDb2dVertex
 10
240.9934636629841
 20
58.54932108580089
 30
0.0
  0
VERTEX
  5
1D5E
330
1D5A
100
AcDbEntity
  8
OUT57
100
AcDbVertex
100
AcDb2dVertex
 10
237.8396264051615
 20
59.7218469866726
 30
0.0
  0
VERTEX
  5
1D5F
330
1D5A
100
AcDbEntity
  8
OUT57
100
AcDbVertex
100
AcDb2dVertex
 10
235.1076545225847
 20
60.57885655054113
 30
0.0
  0
VERTEX
  5
1D60
330
1D5A
100
AcDbEntity
  8
OUT57
100
AcDbVertex
100
AcDb2dVertex
 10
232.7008017506803
 20
61.19187299407189
 30
0.0
  0
VERTEX
  5
1D61
330
1D5A
100
AcDbEntity
  8
OUT57
100
AcDbVertex
100
AcDb2dVertex
 10
230.5223218248729
 20
61.63241953392971
 30
0.0
  0
VERTEX
  5
1D62
330
1D5A
100
AcDbEntity
  8
OUT57
100
AcDbVertex
100
AcDb2dVertex
 10
228.4794349825386
 20
61.96322982272547
 30
0.0
  0
VERTEX
  5
1D63
330
1D5A
100
AcDbEntity
  8
OUT57
100
AcDbVertex
100
AcDb2dVertex
 10
226.4952274688544
 20
62.21187925685341
 30
0.0
  0
VERTEX
  5
1D64
330
1D5A
100
AcDbEntity
  8
OUT57
100
AcDbVertex
100
AcDb2dVertex
 10
224.4967520309464
 20
62.39715366865305
 30
0.0
  0
VERTEX
  5
1D65
330
1D5A
100
AcDbEntity
  8
OUT57
100
AcDbVertex
100
AcDb2dVertex
 10
222.4110614159417
 20
62.53783889046453
 30
0.0
  0
VERTEX
  5
1D66
330
1D5A
100
AcDbEntity
  8
OUT57
100
AcDbVertex
100
AcDb2dVertex
 10
220.1652083709672
 20
62.65272075462757
 30
0.0
  0
VERTEX
  5
1D67
330
1D5A
100
AcDbEntity
  8
OUT57
100
AcDbVertex
100
AcDb2dVertex
 10
217.6862456431491
 20
62.76058509348189
 30
0.0
  0
VERTEX
  5
1D68
330
1D5A
100
AcDbEntity
  8
OUT57
100
AcDbVertex
100
AcDb2dVertex
 10
214.9036276988029
 20
62.86913960792375
 30
0.0
  0
VERTEX
  5
1D69
330
1D5A
100
AcDbEntity
  8
OUT57
100
AcDbVertex
100
AcDb2dVertex
 10
211.7564158809982
 20
62.94177947307323
 30
0.0
  0
VERTEX
  5
1D6A
330
1D5A
100
AcDbEntity
  8
OUT57
100
AcDbVertex
100
AcDb2dVertex
 10
208.1860732519918
 20
62.93082173260697
 30
0.0
  0
VERTEX
  5
1D6B
330
1D5A
100
AcDbEntity
  8
OUT57
100
AcDbVertex
100
AcDb2dVertex
 10
204.1340628740413
 20
62.78858343020126
 30
0.0
  0
VERTEX
  5
1D6C
330
1D5A
100
AcDbEntity
  8
OUT57
100
AcDbVertex
100
AcDb2dVertex
 10
202.8808570944532
 20
62.70092813261383
 30
0.0
  0
SEQEND
  5
1D6D
330
1D5A
100
AcDbEntity
  8
OUT57
  0
POLYLINE
  5
1D6E
330
19
100
AcDbEntity
  8
OUT57
100
AcDb2dPolyline
 66
     1
 10
0.0
 20
0.0
 30
0.0
  0
VERTEX
  5
1D6F
330
1D6E
100
AcDbEntity
  8
OUT57
100
AcDbVertex
100
AcDb2dVertex
 10
202.8808570944532
 20
62.70092813261383
 30
0.0
  0
VERTEX
  5
1D70
330
1D6E
100
AcDbEntity
  8
OUT57
100
AcDbVertex
100
AcDb2dVertex
 10
199.5418478094045
 20
62.46738160953256
 30
0.0
  0
VERTEX
  5
1D71
330
1D6E
100
AcDbEntity
  8
OUT57
100
AcDbVertex
100
AcDb2dVertex
 10
194.350891120339
 20
61.91953331427739
 30
0.0
  0
VERTEX
  5
1D72
330
1D6E
100
AcDbEntity
  8
OUT57
100
AcDbVertex
100
AcDb2dVertex
 10
188.4043842279921
 20
61.09140916940489
 30
0.0
  0
VERTEX
  5
1D73
330
1D6E
100
AcDbEntity
  8
OUT57
100
AcDbVertex
100
AcDb2dVertex
 10
181.1524319890688
 20
59.9055941250539
 30
0.0
  0
VERTEX
  5
1D74
330
1D6E
100
AcDbEntity
  8
OUT57
100
AcDbVertex
100
AcDb2dVertex
 10
171.9468676191615
 20
58.27872671265654
 30
0.0
  0
VERTEX
  5
1D75
330
1D6E
100
AcDbEntity
  8
OUT57
100
AcDbVertex
100
AcDb2dVertex
 10
162.6647988375921
 20
56.58754690706045
 30
0.0
  0
SEQEND
  5
1D76
330
1D6E
100
AcDbEntity
  8
OUT57
  0
POLYLINE
  5
1D77
330
19
100
AcDbEntity
  8
OUT57
100
AcDb2dPolyline
 66
     1
 10
0.0
 20
0.0
 30
0.0
  0
VERTEX
  5
1D78
330
1D77
100
AcDbEntity
  8
OUT57
100
AcDbVertex
100
AcDb2dVertex
 10
73.88085709445224
 20
264.0007888321809
 30
0.0
  0
VERTEX
  5
1D79
330
1D77
100
AcDbEntity
  8
OUT57
100
AcDbVertex
100
AcDb2dVertex
 10
75.76323020830702
 20
263.4339470715917
 30
0.0
  0
VERTEX
  5
1D7A
330
1D77
100
AcDbEntity
  8
OUT57
100
AcDbVertex
100
AcDb2dVertex
 10
77.91032811640031
 20
262.7962711001102
 30
0.0
  0
VERTEX
  5
1D7B
330
1D77
100
AcDbEntity
  8
OUT57
100
AcDbVertex
100
AcDb2dVertex
 10
80.05678302037836
 20
262.167505790751
 30
0.0
  0
VERTEX
  5
1D7C
330
1D77
100
AcDbEntity
  8
OUT57
100
AcDbVertex
100
AcDb2dVertex
 10
82.1994870670176
 20
261.5484260146352
 30
0.0
  0
VERTEX
  5
1D7D
330
1D77
100
AcDbEntity
  8
OUT57
100
AcDbVertex
100
AcDb2dVertex
 10
84.3357610725046
 20
260.939696428249
 30
0.0
  0
VERTEX
  5
1D7E
330
1D77
100
AcDbEntity
  8
OUT57
100
AcDbVertex
100
AcDb2dVertex
 10
86.46303302037839
 20
260.3419541344195
 30
0.0
  0
VERTEX
  5
1D7F
330
1D77
100
AcDbEntity
  8
OUT57
100
AcDbVertex
100
AcDb2dVertex
 10
88.57873089417811
 20
259.7558362359741
 30
0.0
  0
VERTEX
  5
1D80
330
1D77
100
AcDbEntity
  8
OUT57
100
AcDbVertex
100
AcDb2dVertex
 10
90.68028267744288
 20
259.18197983574
 30
0.0
  0
VERTEX
  5
1D81
330
1D77
100
AcDbEntity
  8
OUT57
100
AcDbVertex
100
AcDb2dVertex
 10
92.76511635371173
 20
258.6210220365444
 30
0.0
  0
VERTEX
  5
1D82
330
1D77
100
AcDbEntity
  8
OUT57
100
AcDbVertex
100
AcDb2dVertex
 10
94.83108857593399
 20
258.0734897265797
 30
0.0
  0
VERTEX
  5
1D83
330
1D77
100
AcDbEntity
  8
OUT57
100
AcDbVertex
100
AcDb2dVertex
 10
96.8777706746994
 20
257.5394689354972
 30
0.0
  0
VERTEX
  5
1D84
330
1D77
100
AcDbEntity
  8
OUT57
100
AcDbVertex
100
AcDb2dVertex
 10
98.90516265000804
 20
257.0189354783133
 30
0.0
  0
VERTEX
  5
1D85
330
1D77
100
AcDbEntity
  8
OUT57
100
AcDbVertex
100
AcDb2dVertex
 10
100.9132645018599
 20
256.5118651700446
 30
0.0
  0
VERTEX
  5
1D86
330
1D77
100
AcDbEntity
  8
OUT57
100
AcDbVertex
100
AcDb2dVertex
 10
102.9020762302549
 20
256.0182338257076
 30
0.0
  0
VERTEX
  5
1D87
330
1D77
100
AcDbEntity
  8
OUT57
100
AcDbVertex
100
AcDb2dVertex
 10
104.8715978351932
 20
255.5380172603184
 30
0.0
  0
VERTEX
  5
1D88
330
1D77
100
AcDbEntity
  8
OUT57
100
AcDbVertex
100
AcDb2dVertex
 10
106.8219364840272
 20
255.0711637352348
 30
0.0
  0
VERTEX
  5
1D89
330
1D77
100
AcDbEntity
  8
OUT57
100
AcDbVertex
100
AcDb2dVertex
 10
108.7536280135197
 20
254.6175112971794
 30
0.0
  0
VERTEX
  5
1D8A
330
1D77
100
AcDbEntity
  8
OUT57
100
AcDbVertex
100
AcDb2dVertex
 10
110.6673154277858
 20
254.1768704392158
 30
0.0
  0
VERTEX
  5
1D8B
330
1D77
100
AcDbEntity
  8
OUT57
100
AcDbVertex
100
AcDb2dVertex
 10
112.5636417309408
 20
253.7490516544077
 30
0.0
  0
VERTEX
  5
1D8C
330
1D77
100
AcDbEntity
  8
OUT57
100
AcDbVertex
100
AcDb2dVertex
 10
114.4432499270999
 20
253.3338654358189
 30
0.0
  0
VERTEX
  5
1D8D
330
1D77
100
AcDbEntity
  8
OUT57
100
AcDbVertex
100
AcDb2dVertex
 10
116.3067830203784
 20
252.9311222765131
 30
0.0
  0
VERTEX
  5
1D8E
330
1D77
100
AcDbEntity
  8
OUT57
100
AcDbVertex
100
AcDb2dVertex
 10
118.1548840148915
 20
252.540632669554
 30
0.0
  0
VERTEX
  5
1D8F
330
1D77
100
AcDbEntity
  8
OUT57
100
AcDbVertex
100
AcDb2dVertex
 10
119.9881959147543
 20
252.1622071080052
 30
0.0
  0
VERTEX
  5
1D90
330
1D77
100
AcDbEntity
  8
OUT57
100
AcDbVertex
100
AcDb2dVertex
 10
121.8073617240821
 20
251.7956560849306
 30
0.0
  0
VERTEX
  5
1D91
330
1D77
100
AcDbEntity
  8
OUT57
100
AcDbVertex
100
AcDb2dVertex
 10
123.6130244469902
 20
251.4407900933938
 30
0.0
  0
VERTEX
  5
1D92
330
1D77
100
AcDbEntity
  8
OUT57
100
AcDbVertex
100
AcDb2dVertex
 10
125.4058270875938
 20
251.0974196264586
 30
0.0
  0
VERTEX
  5
1D93
330
1D77
100
AcDbEntity
  8
OUT57
100
AcDbVertex
100
AcDb2dVertex
 10
127.186412650008
 20
250.7653551771887
 30
0.0
  0
VERTEX
  5
1D94
330
1D77
100
AcDbEntity
  8
OUT57
100
AcDbVertex
100
AcDb2dVertex
 10
128.9554241383482
 20
250.4444072386477
 30
0.0
  0
VERTEX
  5
1D95
330
1D77
100
AcDbEntity
  8
OUT57
100
AcDbVertex
100
AcDb2dVertex
 10
130.7135045567296
 20
250.1343863038994
 30
0.0
  0
VERTEX
  5
1D96
330
1D77
100
AcDbEntity
  8
OUT57
100
AcDbVertex
100
AcDb2dVertex
 10
132.4612969092673
 20
249.8351028660075
 30
0.0
  0
VERTEX
  5
1D97
330
1D77
100
AcDbEntity
  8
OUT57
100
AcDbVertex
100
AcDb2dVertex
 10
134.1994442000766
 20
249.5463674180357
 30
0.0
  0
VERTEX
  5
1D98
330
1D77
100
AcDbEntity
  8
OUT57
100
AcDbVertex
100
AcDb2dVertex
 10
135.9285894332728
 20
249.2679904530478
 30
0.0
  0
VERTEX
  5
1D99
330
1D77
100
AcDbEntity
  8
OUT57
100
AcDbVertex
100
AcDb2dVertex
 10
137.649375612971
 20
248.9997824641074
 30
0.0
  0
VERTEX
  5
1D9A
330
1D77
100
AcDbEntity
  8
OUT57
100
AcDbVertex
100
AcDb2dVertex
 10
139.3624457432865
 20
248.7415539442783
 30
0.0
  0
VERTEX
  5
1D9B
330
1D77
100
AcDbEntity
  8
OUT57
100
AcDbVertex
100
AcDb2dVertex
 10
141.0684428283345
 20
248.4931153866241
 30
0.0
  0
VERTEX
  5
1D9C
330
1D77
100
AcDbEntity
  8
OUT57
100
AcDbVertex
100
AcDb2dVertex
 10
142.7680098722303
 20
248.2542772842087
 30
0.0
  0
VERTEX
  5
1D9D
330
1D77
100
AcDbEntity
  8
OUT57
100
AcDbVertex
100
AcDb2dVertex
 10
144.461789879089
 20
248.0248501300956
 30
0.0
  0
SEQEND
  5
1D9E
330
1D77
100
AcDbEntity
  8
OUT57
  0
POLYLINE
  5
1E10
330
19
100
AcDbEntity
  8
OUT57
100
AcDb2dPolyline
 66
     1
 10
0.0
 20
0.0
 30
0.0
  0
VERTEX
  5
1E11
330
1E10
100
AcDbEntity
  8
OUT57
100
AcDbVertex
100
AcDb2dVertex
 10
144.461789879089
 20
248.0248501300956
 30
0.0
  0
VERTEX
  5
1E12
330
1E10
100
AcDbEntity
  8
OUT57
100
AcDbVertex
100
AcDb2dVertex
 10
146.1504258530259
 20
247.8046444173487
 30
0.0
  0
VERTEX
  5
1E13
330
1E10
100
AcDbEntity
  8
OUT57
100
AcDbVertex
100
AcDb2dVertex
 10
147.8345607981562
 20
247.5934706390316
 30
0.0
  0
VERTEX
  5
1E14
330
1E10
100
AcDbEntity
  8
OUT57
100
AcDbVertex
100
AcDb2dVertex
 10
149.5148198573697
 20
247.3911422680206
 30
0.0
  0
VERTEX
  5
1E15
330
1E10
100
AcDbEntity
  8
OUT57
100
AcDbVertex
100
AcDb2dVertex
 10
151.1917567286546
 20
247.197484696442
 30
0.0
  0
VERTEX
  5
1E16
330
1E10
100
AcDbEntity
  8
OUT57
100
AcDbVertex
100
AcDb2dVertex
 10
152.8659072487735
 20
247.0123262962346
 30
0.0
  0
VERTEX
  5
1E17
330
1E10
100
AcDbEntity
  8
OUT57
100
AcDbVertex
100
AcDb2dVertex
 10
154.5378072544891
 20
246.8354954393374
 30
0.0
  0
VERTEX
  5
1E18
330
1E10
100
AcDbEntity
  8
OUT57
100
AcDbVertex
100
AcDb2dVertex
 10
156.2079925825641
 20
246.6668204976891
 30
0.0
  0
VERTEX
  5
1E19
330
1E10
100
AcDbEntity
  8
OUT57
100
AcDbVertex
100
AcDb2dVertex
 10
157.8769990697611
 20
246.5061298432286
 30
0.0
  0
VERTEX
  5
1E1A
330
1E10
100
AcDbEntity
  8
OUT57
100
AcDbVertex
100
AcDb2dVertex
 10
159.5452911079413
 20
246.3532637671448
 30
0.0
  0
VERTEX
  5
1E1B
330
1E10
100
AcDbEntity
  8
OUT57
100
AcDbVertex
100
AcDb2dVertex
 10
161.2130473093588
 20
246.208110237627
 30
0.0
  0
VERTEX
  5
1E1C
330
1E10
100
AcDbEntity
  8
OUT57
100
AcDbVertex
100
AcDb2dVertex
 10
162.880374841366
 20
246.0705691421147
 30
0.0
  0
VERTEX
  5
1E1D
330
1E10
100
AcDbEntity
  8
OUT57
100
AcDbVertex
100
AcDb2dVertex
 10
164.5473808713158
 20
245.9405403680471
 30
0.0
  0
VERTEX
  5
1E1E
330
1E10
100
AcDbEntity
  8
OUT57
100
AcDbVertex
100
AcDb2dVertex
 10
166.2141725665604
 20
245.8179238028637
 30
0.0
  0
VERTEX
  5
1E1F
330
1E10
100
AcDbEntity
  8
OUT57
100
AcDbVertex
100
AcDb2dVertex
 10
167.8808570944525
 20
245.7026193340039
 30
0.0
  0
VERTEX
  5
1E20
330
1E10
100
AcDbEntity
  8
OUT57
100
AcDbVertex
100
AcDb2dVertex
 10
169.5475237611192
 20
245.5945298287195
 30
0.0
  0
VERTEX
  5
1E21
330
1E10
100
AcDbEntity
  8
OUT57
100
AcDbVertex
100
AcDb2dVertex
 10
171.2141904277858
 20
245.4935700735126
 30
0.0
  0
VERTEX
  5
1E22
330
1E10
100
AcDbEntity
  8
OUT57
100
AcDbVertex
100
AcDb2dVertex
 10
172.8808570944525
 20
245.3996578346977
 30
0.0
  0
VERTEX
  5
1E23
330
1E10
100
AcDbEntity
  8
OUT57
100
AcDbVertex
100
AcDb2dVertex
 10
174.5475237611192
 20
245.3127108785893
 30
0.0
  0
VERTEX
  5
1E24
330
1E10
100
AcDbEntity
  8
OUT57
100
AcDbVertex
100
AcDb2dVertex
 10
176.2141904277858
 20
245.2326469715019
 30
0.0
  0
VERTEX
  5
1E25
330
1E10
100
AcDbEntity
  8
OUT57
100
AcDbVertex
100
AcDb2dVertex
 10
177.8808570944525
 20
245.1593838797501
 30
0.0
  0
VERTEX
  5
1E26
330
1E10
100
AcDbEntity
  8
OUT57
100
AcDbVertex
100
AcDb2dVertex
 10
179.5475237611192
 20
245.0928393696482
 30
0.0
  0
VERTEX
  5
1E27
330
1E10
100
AcDbEntity
  8
OUT57
100
AcDbVertex
100
AcDb2dVertex
 10
181.2141904277858
 20
245.032931207511
 30
0.0
  0
VERTEX
  5
1E28
330
1E10
100
AcDbEntity
  8
OUT57
100
AcDbVertex
100
AcDb2dVertex
 10
182.8808570944526
 20
244.9795771596528
 30
0.0
  0
VERTEX
  5
1E29
330
1E10
100
AcDbEntity
  8
OUT57
100
AcDbVertex
100
AcDb2dVertex
 10
184.5475237611192
 20
244.9326949923883
 30
0.0
  0
VERTEX
  5
1E2A
330
1E10
100
AcDbEntity
  8
OUT57
100
AcDbVertex
100
AcDb2dVertex
 10
186.2141904277859
 20
244.8922024720318
 30
0.0
  0
VERTEX
  5
1E2B
330
1E10
100
AcDbEntity
  8
OUT57
100
AcDbVertex
100
AcDb2dVertex
 10
187.8808570944526
 20
244.8580173648979
 30
0.0
  0
VERTEX
  5
1E2C
330
1E10
100
AcDbEntity
  8
OUT57
100
AcDbVertex
100
AcDb2dVertex
 10
189.5475237611192
 20
244.8300574373012
 30
0.0
  0
VERTEX
  5
1E2D
330
1E10
100
AcDbEntity
  8
OUT57
100
AcDbVertex
100
AcDb2dVertex
 10
191.2141904277859
 20
244.8082404555563
 30
0.0
  0
VERTEX
  5
1E2E
330
1E10
100
AcDbEntity
  8
OUT57
100
AcDbVertex
100
AcDb2dVertex
 10
192.8808570944526
 20
244.7924841859774
 30
0.0
  0
SEQEND
  5
1E2F
330
1E10
100
AcDbEntity
  8
OUT57
  0
POLYLINE
  5
1E30
330
19
100
AcDbEntity
  8
OUT57
100
AcDb2dPolyline
 66
     1
 10
0.0
 20
0.0
 30
0.0
  0
VERTEX
  5
1E31
330
1E30
100
AcDbEntity
  8
OUT57
100
AcDbVertex
100
AcDb2dVertex
 10
192.8808570944526
 20
244.7924841859774
 30
0.0
  0
VERTEX
  5
1E32
330
1E30
100
AcDbEntity
  8
OUT57
100
AcDbVertex
100
AcDb2dVertex
 10
194.5475237611192
 20
244.7827063948793
 30
0.0
  0
VERTEX
  5
1E33
330
1E30
100
AcDbEntity
  8
OUT57
100
AcDbVertex
100
AcDb2dVertex
 10
196.2141904277859
 20
244.7788248485764
 30
0.0
  0
VERTEX
  5
1E34
330
1E30
100
AcDbEntity
  8
OUT57
100
AcDbVertex
100
AcDb2dVertex
 10
197.8808570944526
 20
244.7807573133833
 30
0.0
  0
VERTEX
  5
1E35
330
1E30
100
AcDbEntity
  8
OUT57
100
AcDbVertex
100
AcDb2dVertex
 10
199.5475237611192
 20
244.7884215556144
 30
0.0
  0
VERTEX
  5
1E36
330
1E30
100
AcDbEntity
  8
OUT57
100
AcDbVertex
100
AcDb2dVertex
 10
201.2141904277859
 20
244.8017353415843
 30
0.0
  0
VERTEX
  5
1E37
330
1E30
100
AcDbEntity
  8
OUT57
100
AcDbVertex
100
AcDb2dVertex
 10
202.8808570944525
 20
244.8206164376074
 30
0.0
  0
VERTEX
  5
1E38
330
1E30
100
AcDbEntity
  8
OUT57
100
AcDbVertex
100
AcDb2dVertex
 10
204.5475237611192
 20
244.8449826099984
 30
0.0
  0
VERTEX
  5
1E39
330
1E30
100
AcDbEntity
  8
OUT57
100
AcDbVertex
100
AcDb2dVertex
 10
206.2141904277858
 20
244.8747516250717
 30
0.0
  0
VERTEX
  5
1E3A
330
1E30
100
AcDbEntity
  8
OUT57
100
AcDbVertex
100
AcDb2dVertex
 10
207.8808570944525
 20
244.9098412491419
 30
0.0
  0
VERTEX
  5
1E3B
330
1E30
100
AcDbEntity
  8
OUT57
100
AcDbVertex
100
AcDb2dVertex
 10
209.5475416223446
 20
244.9501807051559
 30
0.0
  0
VERTEX
  5
1E3C
330
1E30
100
AcDbEntity
  8
OUT57
100
AcDbVertex
100
AcDb2dVertex
 10
211.2143333175893
 20
244.9957450425908
 30
0.0
  0
VERTEX
  5
1E3D
330
1E30
100
AcDbEntity
  8
OUT57
100
AcDbVertex
100
AcDb2dVertex
 10
212.8813393475389
 20
245.046520767556
 30
0.0
  0
VERTEX
  5
1E3E
330
1E30
100
AcDbEntity
  8
OUT57
100
AcDbVertex
100
AcDb2dVertex
 10
214.5486668795463
 20
245.1024943861611
 30
0.0
  0
VERTEX
  5
1E3F
330
1E30
100
AcDbEntity
  8
OUT57
100
AcDbVertex
100
AcDb2dVertex
 10
216.2164230809638
 20
245.1636524045155
 30
0.0
  0
VERTEX
  5
1E40
330
1E30
100
AcDbEntity
  8
OUT57
100
AcDbVertex
100
AcDb2dVertex
 10
217.8847151191439
 20
245.2299813287289
 30
0.0
  0
VERTEX
  5
1E41
330
1E30
100
AcDbEntity
  8
OUT57
100
AcDbVertex
100
AcDb2dVertex
 10
219.553721606341
 20
245.3015134914405
 30
0.0
  0
VERTEX
  5
1E42
330
1E30
100
AcDbEntity
  8
OUT57
100
AcDbVertex
100
AcDb2dVertex
 10
221.223906934416
 20
245.3784645314101
 30
0.0
  0
VERTEX
  5
1E43
330
1E30
100
AcDbEntity
  8
OUT57
100
AcDbVertex
100
AcDb2dVertex
 10
222.8958069401315
 20
245.4610959139268
 30
0.0
  0
VERTEX
  5
1E44
330
1E30
100
AcDbEntity
  8
OUT57
100
AcDbVertex
100
AcDb2dVertex
 10
224.5699574602505
 20
245.5496691042803
 30
0.0
  0
VERTEX
  5
1E45
330
1E30
100
AcDbEntity
  8
OUT57
100
AcDbVertex
100
AcDb2dVertex
 10
226.2468943315353
 20
245.6444455677599
 30
0.0
  0
VERTEX
  5
1E46
330
1E30
100
AcDbEntity
  8
OUT57
100
AcDbVertex
100
AcDb2dVertex
 10
227.9271533907489
 20
245.7456867696551
 30
0.0
  0
VERTEX
  5
1E47
330
1E30
100
AcDbEntity
  8
OUT57
100
AcDbVertex
100
AcDb2dVertex
 10
229.6112883358791
 20
245.8536656318878
 30
0.0
  0
VERTEX
  5
1E48
330
1E30
100
AcDbEntity
  8
OUT57
100
AcDbVertex
100
AcDb2dVertex
 10
231.299924309816
 20
245.9687009029099
 30
0.0
  0
VERTEX
  5
1E49
330
1E30
100
AcDbEntity
  8
OUT57
100
AcDbVertex
100
AcDb2dVertex
 10
232.9937043166747
 20
246.091122787806
 30
0.0
  0
VERTEX
  5
1E4A
330
1E30
100
AcDbEntity
  8
OUT57
100
AcDbVertex
100
AcDb2dVertex
 10
234.6932713605705
 20
246.2212614916603
 30
0.0
  0
VERTEX
  5
1E4B
330
1E30
100
AcDbEntity
  8
OUT57
100
AcDbVertex
100
AcDb2dVertex
 10
236.3992684456185
 20
246.3594472195574
 30
0.0
  0
VERTEX
  5
1E4C
330
1E30
100
AcDbEntity
  8
OUT57
100
AcDbVertex
100
AcDb2dVertex
 10
238.112338575934
 20
246.5060101765816
 30
0.0
  0
VERTEX
  5
1E4D
330
1E30
100
AcDbEntity
  8
OUT57
100
AcDbVertex
100
AcDb2dVertex
 10
239.8331247556322
 20
246.6612805678174
 30
0.0
  0
VERTEX
  5
1E4E
330
1E30
100
AcDbEntity
  8
OUT57
100
AcDbVertex
100
AcDb2dVertex
 10
241.5622699888284
 20
246.8255885983492
 30
0.0
  0
VERTEX
  5
1E4F
330
1E30
100
AcDbEntity
  8
OUT57
100
AcDbVertex
100
AcDb2dVertex
 10
243.3004172796377
 20
246.9992644732614
 30
0.0
  0
VERTEX
  5
1E50
330
1E30
100
AcDbEntity
  8
OUT57
100
AcDbVertex
100
AcDb2dVertex
 10
245.0482096321754
 20
247.1826383976385
 30
0.0
  0
VERTEX
  5
1E51
330
1E30
100
AcDbEntity
  8
OUT57
100
AcDbVertex
100
AcDb2dVertex
 10
246.8062900505568
 20
247.3760405765649
 30
0.0
  0
VERTEX
  5
1E52
330
1E30
100
AcDbEntity
  8
OUT57
100
AcDbVertex
100
AcDb2dVertex
 10
248.575301538897
 20
247.579801215125
 30
0.0
  0
VERTEX
  5
1E53
330
1E30
100
AcDbEntity
  8
OUT57
100
AcDbVertex
100
AcDb2dVertex
 10
250.3558871013112
 20
247.7942505184033
 30
0.0
  0
VERTEX
  5
1E54
330
1E30
100
AcDbEntity
  8
OUT57
100
AcDbVertex
100
AcDb2dVertex
 10
252.1486897419148
 20
248.0197186914841
 30
0.0
  0
VERTEX
  5
1E55
330
1E30
100
AcDbEntity
  8
OUT57
100
AcDbVertex
100
AcDb2dVertex
 10
253.9543524648229
 20
248.2565359394519
 30
0.0
  0
VERTEX
  5
1E56
330
1E30
100
AcDbEntity
  8
OUT57
100
AcDbVertex
100
AcDb2dVertex
 10
255.7735182741507
 20
248.5050324673912
 30
0.0
  0
VERTEX
  5
1E57
330
1E30
100
AcDbEntity
  8
OUT57
100
AcDbVertex
100
AcDb2dVertex
 10
257.6068301740136
 20
248.7655384803862
 30
0.0
  0
VERTEX
  5
1E58
330
1E30
100
AcDbEntity
  8
OUT57
100
AcDbVertex
100
AcDb2dVertex
 10
259.4549311685266
 20
249.0383841835216
 30
0.0
  0
VERTEX
  5
1E59
330
1E30
100
AcDbEntity
  8
OUT57
100
AcDbVertex
100
AcDb2dVertex
 10
261.3184642618051
 20
249.3238997818817
 30
0.0
  0
VERTEX
  5
1E5A
330
1E30
100
AcDbEntity
  8
OUT57
100
AcDbVertex
100
AcDb2dVertex
 10
263.1980724579642
 20
249.6224154805509
 30
0.0
  0
VERTEX
  5
1E5B
330
1E30
100
AcDbEntity
  8
OUT57
100
AcDbVertex
100
AcDb2dVertex
 10
265.0943987611192
 20
249.9342614846136
 30
0.0
  0
VERTEX
  5
1E5C
330
1E30
100
AcDbEntity
  8
OUT57
100
AcDbVertex
100
AcDb2dVertex
 10
267.0080861753854
 20
250.2597679991543
 30
0.0
  0
VERTEX
  5
1E5D
330
1E30
100
AcDbEntity
  8
OUT57
100
AcDbVertex
100
AcDb2dVertex
 10
268.9397777048778
 20
250.5992652292574
 30
0.0
  0
VERTEX
  5
1E5E
330
1E30
100
AcDbEntity
  8
OUT57
100
AcDbVertex
100
AcDb2dVertex
 10
270.8901163537118
 20
250.9530833800074
 30
0.0
  0
VERTEX
  5
1E5F
330
1E30
100
AcDbEntity
  8
OUT57
100
AcDbVertex
100
AcDb2dVertex
 10
272.8596951145714
 20
251.3215483253618
 30
0.0
  0
VERTEX
  5
1E60
330
1E30
100
AcDbEntity
  8
OUT57
100
AcDbVertex
100
AcDb2dVertex
 10
274.8489069344159
 20
251.7049686147706
 30
0.0
  0
VERTEX
  5
1E61
330
1E30
100
AcDbEntity
  8
OUT57
100
AcDbVertex
100
AcDb2dVertex
 10
276.8580947487735
 20
252.1036484665571
 30
0.0
  0
VERTEX
  5
1E62
330
1E30
100
AcDbEntity
  8
OUT57
100
AcDbVertex
100
AcDb2dVertex
 10
278.8876014931723
 20
252.5178920990446
 30
0.0
  0
VERTEX
  5
1E63
330
1E30
100
AcDbEntity
  8
OUT57
100
AcDbVertex
100
AcDb2dVertex
 10
280.9377701031403
 20
252.9480037305561
 30
0.0
  0
VERTEX
  5
1E64
330
1E30
100
AcDbEntity
  8
OUT57
100
AcDbVertex
100
AcDb2dVertex
 10
283.0089435142056
 20
253.394287579415
 30
0.0
  0
VERTEX
  5
1E65
330
1E30
100
AcDbEntity
  8
OUT57
100
AcDbVertex
100
AcDb2dVertex
 10
285.1012646161718
 20
253.857030539437
 30
0.0
  0
VERTEX
  5
1E66
330
1E30
100
AcDbEntity
  8
OUT57
100
AcDbVertex
100
AcDb2dVertex
 10
287.2140761159432
 20
254.3364502064079
 30
0.0
  0
VERTEX
  5
1E67
330
1E30
100
AcDbEntity
  8
OUT57
100
AcDbVertex
100
AcDb2dVertex
 10
289.3465206746994
 20
254.8327468516061
 30
0.0
  0
VERTEX
  5
1E68
330
1E30
100
AcDbEntity
  8
OUT57
100
AcDbVertex
100
AcDb2dVertex
 10
291.4977409536204
 20
255.3461207463099
 30
0.0
  0
VERTEX
  5
1E69
330
1E30
100
AcDbEntity
  8
OUT57
100
AcDbVertex
100
AcDb2dVertex
 10
293.6668796138856
 20
255.8767721617977
 30
0.0
  0
VERTEX
  5
1E6A
330
1E30
100
AcDbEntity
  8
OUT57
100
AcDbVertex
100
AcDb2dVertex
 10
295.8530793166747
 20
256.424901369348
 30
0.0
  0
VERTEX
  5
1E6B
330
1E30
100
AcDbEntity
  8
OUT57
100
AcDbVertex
100
AcDb2dVertex
 10
298.0554327117365
 20
256.9907043091122
 30
0.0
  0
VERTEX
  5
1E6C
330
1E30
100
AcDbEntity
  8
OUT57
100
AcDbVertex
100
AcDb2dVertex
 10
300.2728324030945
 20
257.5743595967343
 30
0.0
  0
VERTEX
  5
1E6D
330
1E30
100
AcDbEntity
  8
OUT57
100
AcDbVertex
100
AcDb2dVertex
 10
302.5041209833414
 20
258.1760415167315
 30
0.0
  0
VERTEX
  5
1E6E
330
1E30
100
AcDbEntity
  8
OUT57
100
AcDbVertex
100
AcDb2dVertex
 10
304.7481410450698
 20
258.7959243536209
 30
0.0
  0
VERTEX
  5
1E6F
330
1E30
100
AcDbEntity
  8
OUT57
100
AcDbVertex
100
AcDb2dVertex
 10
307.0037351808723
 20
259.4341823919198
 30
0.0
  0
VERTEX
  5
1E70
330
1E30
100
AcDbEntity
  8
OUT57
100
AcDbVertex
100
AcDb2dVertex
 10
309.2697459833415
 20
260.0909899161451
 30
0.0
  0
VERTEX
  5
1E71
330
1E30
100
AcDbEntity
  8
OUT57
100
AcDbVertex
100
AcDb2dVertex
 10
311.5450160450699
 20
260.7665212108142
 30
0.0
  0
VERTEX
  5
1E72
330
1E30
100
AcDbEntity
  8
OUT57
100
AcDbVertex
100
AcDb2dVertex
 10
313.8283879586501
 20
261.4609505604442
 30
0.0
  0
VERTEX
  5
1E73
330
1E30
100
AcDbEntity
  8
OUT57
100
AcDbVertex
100
AcDb2dVertex
 10
316.1187043166748
 20
262.1744522495522
 30
0.0
  0
VERTEX
  5
1E74
330
1E30
100
AcDbEntity
  8
OUT57
100
AcDbVertex
100
AcDb2dVertex
 10
318.4148077117366
 20
262.9072005626555
 30
0.0
  0
VERTEX
  5
1E75
330
1E30
100
AcDbEntity
  8
OUT57
100
AcDbVertex
100
AcDb2dVertex
 10
320.715540736428
 20
263.6593697842711
 30
0.0
  0
VERTEX
  5
1E76
330
1E30
100
AcDbEntity
  8
OUT57
100
AcDbVertex
100
AcDb2dVertex
 10
323.0197459833414
 20
264.4311341989162
 30
0.0
  0
VERTEX
  5
1E77
330
1E30
100
AcDbEntity
  8
OUT57
100
AcDbVertex
100
AcDb2dVertex
 10
325.3315547539175
 20
265.2249037847342
 30
0.0
  0
VERTEX
  5
1E78
330
1E30
100
AcDbEntity
  8
OUT57
100
AcDbVertex
100
AcDb2dVertex
 10
327.6762531849875
 20
266.0520312943735
 30
0.0
  0
VERTEX
  5
1E79
330
1E30
100
AcDbEntity
  8
OUT57
100
AcDbVertex
100
AcDb2dVertex
 10
330.0844161222303
 20
266.9261051741087
 30
0.0
  0
VERTEX
  5
1E7A
330
1E30
100
AcDbEntity
  8
OUT57
100
AcDbVertex
100
AcDb2dVertex
 10
332.5866184113249
 20
267.8607138702143
 30
0.0
  0
VERTEX
  5
1E7B
330
1E30
100
AcDbEntity
  8
OUT57
100
AcDbVertex
100
AcDb2dVertex
 10
335.2134348979505
 20
268.8694458289652
 30
0.0
  0
VERTEX
  5
1E7C
330
1E30
100
AcDbEntity
  8
OUT57
100
AcDbVertex
100
AcDb2dVertex
 10
337.9954404277859
 20
269.9658894966357
 30
0.0
  0
VERTEX
  5
1E7D
330
1E30
100
AcDbEntity
  8
OUT57
100
AcDbVertex
100
AcDb2dVertex
 10
340.9682236057732
 20
271.1684154420435
 30
0.0
  0
VERTEX
  5
1E7E
330
1E30
100
AcDbEntity
  8
OUT57
100
AcDbVertex
100
AcDb2dVertex
 10
344.1874280739066
 20
272.5145227241781
 30
0.0
  0
VERTEX
  5
1E7F
330
1E30
100
AcDbEntity
  8
OUT57
100
AcDbVertex
100
AcDb2dVertex
 10
347.7137112334435
 20
274.0464925245718
 30
0.0
  0
VERTEX
  5
1E80
330
1E30
100
AcDbEntity
  8
OUT57
100
AcDbVertex
100
AcDb2dVertex
 10
351.6077304856408
 20
275.8066060247571
 30
0.0
  0
VERTEX
  5
1E81
330
1E30
100
AcDbEntity
  8
OUT57
100
AcDbVertex
100
AcDb2dVertex
 10
355.9301432317561
 20
277.8371444062664
 30
0.0
  0
VERTEX
  5
1E82
330
1E30
100
AcDbEntity
  8
OUT57
100
AcDbVertex
100
AcDb2dVertex
 10
360.7416068730465
 20
280.180388850632
 30
0.0
  0
SEQEND
  5
1E83
330
1E30
100
AcDbEntity
  8
OUT57
  0
LINE
  5
2CFE
330
19
100
AcDbEntity
  8
CTR34
100
AcDbLine
 10
354.8808570944527
 20
362.2849164270019
 30
0.0
 11
27.88085709445251
 21
362.2849164270019
 31
0.0
  0
LINE
  5
2D01
330
19
100
AcDbEntity
  8
CTR34
100
AcDbLine
 10
337.8808570944526
 20
362.2849164270017
 30
0.0
 11
520.8371097033687
 21
362.2849164270019
 31
0.0
  0
ARC
  5
2DA7
330
19
100
AcDbEntity
  8
OUT57
100
AcDbCircle
 10
73.55512820825561
 20
104.7126003531588
 30
0.0
 40
39.32100108481968
100
AcDbArc
 50
184.1075359390185
 51
270.0
  0
ARC
  5
2DA8
330
19
100
AcDbEntity
  8
OUT57
100
AcDbCircle
 10
73.55512820825504
 20
104.7126003531588
 30
0.0
 40
39.32100108481968
100
AcDbArc
 50
270.0
 51
355.8924640609815
  0
LINE
  5
2E63
330
19
100
AcDbEntity
  8
HID34
100
AcDbLine
 10
237.0908242878068
 20
245.9386580449419
 30
0.0
 11
238.8669324951267
 21
347.6918290943729
 31
0.0
  0
LINE
  5
2E64
330
19
100
AcDbEntity
  8
HID34
100
AcDbLine
 10
236.089423795836
 20
245.8671507814588
 30
0.0
 11
237.7880619206147
 21
343.1820637745747
 31
0.0
  0
LINE
  5
2E65
330
19
100
AcDbEntity
  8
OUT57
100
AcDbLine
 10
237.8322508573361
 20
343.1380438046123
 30
0.0
 11
237.832250857336
 21
345.6918290943729
 31
0.0
  0
LINE
  5
2E66
330
19
100
AcDbEntity
  8
HID34
100
AcDbLine
 10
240.095260401883
 20
246.166622246785
 30
0.0
 11
241.8673894792584
 21
347.6918290943729
 31
0.0
  0
LINE
  5
2E67
330
19
100
AcDbEntity
  8
HID34
100
AcDbLine
 10
241.0968288073234
 20
246.2477492664953
 30
0.0
 11
242.7975214169807
 21
343.6803636194821
 31
0.0
  0
LINE
  5
2E68
330
19
100
AcDbEntity
  8
OUT57
100
AcDbLine
 10
242.832250857336
 20
343.7236948792014
 30
0.0
 11
242.8322508573361
 21
345.6918290943729
 31
0.0
  0
LINE
  5
30BB
330
19
100
AcDbEntity
  8
CTR34
100
AcDbLine
 10
497.3783213555473
 20
257.2668805299219
 30
0.0
 11
497.3783213555473
 21
362.2849164270019
 31
0.0
  0
LINE
  5
30BC
330
19
100
AcDbEntity
  8
OUT57
100
AcDbLine
 10
469.4783213555472
 20
286.7349164270018
 30
0.0
 11
469.4783213555473
 21
310.7349164270018
 31
0.0
  0
LINE
  5
30BD
330
19
100
AcDbEntity
  8
OUT57
100
AcDbLine
 10
497.3783213555473
 20
315.7349164270018
 30
0.0
 11
474.4783213555473
 21
315.7349164270018
 31
0.0
  0
ARC
  5
30BE
330
19
100
AcDbEntity
  8
OUT57
100
AcDbCircle
 10
474.4783213555473
 20
310.7349164270018
 30
0.0
 40
5.0
100
AcDbArc
 50
90.0
 51
180.0
  0
LINE
  5
30C0
330
19
100
AcDbEntity
  8
OUT57
100
AcDbLine
 10
525.2783213555472
 20
286.7349164270018
 30
0.0
 11
525.2783213555472
 21
310.7349164270018
 31
0.0
  0
LINE
  5
30C1
330
19
100
AcDbEntity
  8
OUT57
100
AcDbLine
 10
497.3783213555473
 20
315.7349164270018
 30
0.0
 11
520.2783213555472
 21
315.7349164270018
 31
0.0
  0
ARC
  5
30C2
330
19
100
AcDbEntity
  8
OUT57
100
AcDbCircle
 10
520.2783213555472
 20
310.7349164270018
 30
0.0
 40
5.0
100
AcDbArc
 50
0.0
 51
90.0
  0
LINE
  5
30C5
330
19
100
AcDbEntity
  8
CTR34
100
AcDbLine
 10
497.3783213555473
 20
276.7349164270018
 30
0.0
 11
497.3783213555473
 21
312.7349164270018
 31
0.0
  0
ARC
  5
30C7
330
19
100
AcDbEntity
  8
OUT57
100
AcDbCircle
 10
497.3783213555473
 20
285.2085992346079
 30
0.0
 40
27.94171870468583
100
AcDbArc
 50
176.8686578029362
 51
3.131342197063822
  0
LINE
  5
30C9
330
19
100
AcDbEntity
  8
CTR34
100
AcDbLine
 10
497.3783213555473
 20
257.266880529922
 30
0.0
 11
497.3783213555473
 21
362.2849164270019
 31
0.0
  0
LINE
  5
30CD
330
19
100
AcDbEntity
  8
CTR34
100
AcDbLine
 10
497.3783213555473
 20
276.7349164270018
 30
0.0
 11
497.3783213555473
 21
312.7349164270018
 31
0.0
  0
LINE
  5
30CE
330
19
100
AcDbEntity
  8
OUT57
100
AcDbLine
 10
483.5883213555473
 20
286.7349164270018
 30
0.0
 11
483.5883213555473
 21
307.7349164270018
 31
0.0
  0
ARC
  5
30CF
330
19
100
AcDbEntity
  8
OUT57
100
AcDbCircle
 10
488.5883213555473
 20
307.7349164270018
 30
0.0
 40
5.0
100
AcDbArc
 50
90.0
 51
180.0
  0
LINE
  5
30D0
330
19
100
AcDbEntity
  8
OUT57
100
AcDbLine
 10
497.3783213555473
 20
312.7349164270018
 30
0.0
 11
488.5883213555473
 21
312.7349164270018
 31
0.0
  0
LINE
  5
30D1
330
19
100
AcDbEntity
  8
OUT57
100
AcDbLine
 10
511.1683213555481
 20
286.7349164270018
 30
0.0
 11
511.1683213555499
 21
307.7349164270007
 31
0.0
  0
ARC
  5
30D2
330
19
100
AcDbEntity
  8
OUT57
100
AcDbCircle
 10
506.1683213555499
 20
307.7349164270011
 30
0.0
 40
4.999999999999999
100
AcDbArc
 50
359.9999999999951
 51
90.0
  0
LINE
  5
30D3
330
19
100
AcDbEntity
  8
OUT57
100
AcDbLine
 10
497.3783213555504
 20
312.7349164270018
 30
0.0
 11
506.1683213555504
 21
312.7349164270011
 31
0.0
  0
LINE
  5
30D5
330
19
100
AcDbEntity
  8
OUT57
100
AcDbLine
 10
497.3783213555473
 20
312.7349164270018
 30
0.0
 11
491.3783213555473
 21
312.7349164270018
 31
0.0
  0
ARC
  5
30D6
330
19
100
AcDbEntity
  8
OUT57
100
AcDbCircle
 10
497.3783213555477
 20
291.2431214270026
 30
0.0
 40
14.50820500000061
100
AcDbArc
 50
198.1035219318174
 51
341.8964780681826
  0
LINE
  5
30D8
330
19
100
AcDbEntity
  8
CTR34
100
AcDbLine
 10
497.3783213555473
 20
257.266880529922
 30
0.0
 11
497.3783213555473
 21
362.2849164270019
 31
0.0
  0
LINE
  5
30DC
330
19
100
AcDbEntity
  8
CTR34
100
AcDbLine
 10
497.3783213555473
 20
276.7349164270018
 30
0.0
 11
497.3783213555473
 21
312.7349164270018
 31
0.0
  0
LINE
  5
30DD
330
19
100
AcDbEntity
  8
OUT57
100
AcDbLine
 10
497.3783213555473
 20
312.7349164270018
 30
0.0
 11
491.3783213555473
 21
312.7349164270018
 31
0.0
  0
LINE
  5
30DE
330
19
100
AcDbEntity
  8
OUT57
100
AcDbLine
 10
497.3783213555504
 20
312.7349164270018
 30
0.0
 11
503.3783213555531
 21
312.7349164270013
 31
0.0
  0
LINE
  5
30E1
330
19
100
AcDbEntity
  8
OUT57
100
AcDbLine
 10
497.3783213555473
 20
312.7349164270018
 30
0.0
 11
491.3783213555473
 21
312.7349164270018
 31
0.0
  0
ARC
  5
30E5
330
19
100
AcDbEntity
  8
OUT57
100
AcDbCircle
 10
497.3783213555489
 20
292.4442928092795
 30
0.0
 40
14.60000000000342
100
AcDbArc
 50
214.722762926818
 51
325.2772370731593
  0
LINE
  5
30EA
330
19
100
AcDbEntity
  8
OUT57
100
AcDbLine
 10
414.2647784625204
 20
269.9207299277898
 30
0.0
 11
414.2747784625204
 21
269.9207299277899
 31
0.0
  0
LINE
  5
30EB
330
19
100
AcDbEntity
  8
CTR34
100
AcDbLine
 10
414.2747784625204
 20
269.9207299277899
 30
0.0
 11
414.2747784625204
 21
359.7349164270018
 31
0.0
  0
LINE
  5
30EC
330
19
100
AcDbEntity
  8
OUT57
100
AcDbLine
 10
401.2647784625204
 20
283.4509259685425
 30
0.0
 11
405.0500659031478
 21
348.3651478866076
 31
0.0
  0
ARC
  5
30ED
330
19
100
AcDbEntity
  8
OUT57
100
AcDbCircle
 10
410.0442548343377
 20
348.1241563523562
 30
0.0
 40
5.0
100
AcDbArc
 50
147.175679837521
 51
177.2373700993585
  0
ARC
  5
30EE
330
19
100
AcDbEntity
  8
OUT57
100
AcDbCircle
 10
414.2747784625204
 20
354.7349164270018
 30
0.0
 40
5.0
100
AcDbArc
 50
90.0
 51
153.2850841191729
  0
ARC
  5
30EF
330
19
100
AcDbEntity
  8
OUT57
100
AcDbCircle
 10
414.2747784625204
 20
282.9407299277898
 30
0.0
 40
13.01999999999998
100
AcDbArc
 50
175.5712212273558
 51
270.0
  0
LINE
  5
30F0
330
19
100
AcDbEntity
  8
OUT57
100
AcDbLine
 10
427.2847784626688
 20
283.4509259685421
 30
0.0
 11
423.499491022044
 21
348.3651478866073
 31
0.0
  0
LINE
  5
30F1
330
19
100
AcDbEntity
  8
OUT57
100
AcDbLine
 10
422.7069850437001
 20
350.8344811232578
 30
0.0
 11
418.7410503941121
 21
356.982674206307
 31
0.0
  0
ARC
  5
30F2
330
19
100
AcDbEntity
  8
OUT57
100
AcDbCircle
 10
418.5053020908541
 20
348.1241563523561
 30
0.0
 40
5.0
100
AcDbArc
 50
2.762629900639101
 51
32.82432016247591
  0
ARC
  5
30F3
330
19
100
AcDbEntity
  8
OUT57
100
AcDbCircle
 10
414.2747784626716
 20
354.7349164270018
 30
0.0
 40
5.0
100
AcDbArc
 50
26.71491588082334
 51
90.0
  0
ARC
  5
30F4
330
19
100
AcDbEntity
  8
OUT57
100
AcDbCircle
 10
414.2747784626688
 20
282.9407299277898
 30
0.0
 40
13.01999999999998
100
AcDbArc
 50
270.0
 51
4.428778772641825
  0
LINE
  5
30F6
330
19
100
AcDbEntity
  8
OUT57
100
AcDbLine
 10
405.8425718813749
 20
350.8344811235121
 30
0.0
 11
409.8085065311483
 21
356.9826742064417
 31
0.0
  0
LINE
  5
310E
330
19
100
AcDbEntity
  8
CTR34
100
AcDbLine
 10
380.2447784625206
 20
329.0261556002122
 30
0.0
 11
414.2747784625206
 21
329.0261556002122
 31
0.0
  0
LINE
  5
310F
330
19
100
AcDbEntity
  8
OUT57
100
AcDbLine
 10
380.8001559997435
 20
281.7564084342079
 30
0.0
 11
383.3897375063623
 21
326.7647262445803
 31
0.0
  0
ARC
  5
3110
330
19
100
AcDbEntity
  8
OUT57
100
AcDbCircle
 10
417.1272998717462
 20
340.2737074817297
 30
0.0
 40
11.1257967648508
100
AcDbArc
 50
104.8558495910293
 51
121.6964044824401
  0
LINE
  5
3111
330
19
100
AcDbEntity
  8
OUT57
100
AcDbLine
 10
385.3816511397645
 20
330.3839758171524
 30
0.0
 11
411.2816031104566
 21
349.7400258277296
 31
0.0
  0
ARC
  5
3112
330
19
100
AcDbEntity
  8
OUT57
100
AcDbCircle
 10
388.3748264918285
 20
326.3788664164248
 30
0.0
 40
5.0
100
AcDbArc
 50
126.7722041830598
 51
175.5739714254943
  0
LINE
  5
3113
330
19
100
AcDbEntity
  8
CTR34
100
AcDbLine
 10
448.3047784625217
 20
329.0261556002117
 30
0.0
 11
414.2747784625217
 21
329.0261556002122
 31
0.0
  0
LINE
  5
3114
330
19
100
AcDbEntity
  8
OUT57
100
AcDbLine
 10
447.7494009252981
 20
281.7564084342112
 30
0.0
 11
445.15981941868
 21
326.7647262445798
 31
0.0
  0
ARC
  5
3115
330
19
100
AcDbEntity
  8
OUT57
100
AcDbCircle
 10
411.4222570532993
 20
340.2737074817354
 30
0.0
 40
11.12579676484444
100
AcDbArc
 50
58.3035955175527
 51
75.14415040897747
  0
LINE
  5
3116
330
19
100
AcDbEntity
  8
OUT57
100
AcDbLine
 10
443.1679057852779
 20
330.3839758171521
 30
0.0
 11
417.2679538145861
 21
349.7400258277296
 31
0.0
  0
ARC
  5
3117
330
19
100
AcDbEntity
  8
OUT57
100
AcDbCircle
 10
440.1747304332138
 20
326.3788664164244
 30
0.0
 40
5.0
100
AcDbArc
 50
4.426028574505304
 51
53.22779581693559
  0
LINE
  5
3118
330
19
100
AcDbEntity
  8
OUT57
100
AcDbLine
 10
414.2647784625203
 20
269.9207299277898
 30
0.0
 11
414.2747784625203
 21
269.9207299277899
 31
0.0
  0
LINE
  5
3119
330
19
100
AcDbEntity
  8
CTR34
100
AcDbLine
 10
414.2747784625203
 20
269.9207299277899
 30
0.0
 11
414.2747784625203
 21
359.7349164270018
 31
0.0
  0
ARC
  5
311A
330
19
100
AcDbEntity
  8
OUT57
100
AcDbCircle
 10
414.386502256145
 20
285.9506891558187
 30
0.0
 40
33.84722508015349
100
AcDbArc
 50
187.1182764332775
 51
269.8108762696219
  0
ARC
  5
311B
330
19
100
AcDbEntity
  8
OUT57
100
AcDbCircle
 10
414.1630546688961
 20
285.9506891558187
 30
0.0
 40
33.84722508015349
100
AcDbArc
 50
270.1891237303748
 51
352.8817235667213
  0
LINE
  5
3120
330
19
100
AcDbEntity
  8
OUT57
100
AcDbLine
 10
375.0547784625203
 20
318.6567780048723
 30
0.0
 11
375.0547784625202
 21
281.7702388974854
 31
0.0
  0
ARC
  5
3121
330
19
100
AcDbEntity
  8
OUT57
100
AcDbCircle
 10
380.0547784625203
 20
318.6567780048723
 30
0.0
 40
5.0
100
AcDbArc
 50
120.4183048799146
 51
180.0
  0
LINE
  5
3122
330
19
100
AcDbEntity
  8
CTR34
100
AcDbLine
 10
375.0547784625202
 20
321.5192444334011
 30
0.0
 11
414.2747784625203
 21
321.5192444334011
 31
0.0
  0
ARC
  5
3123
330
19
100
AcDbEntity
  8
OUT57
100
AcDbCircle
 10
420.8296966538653
 20
323.0486279495451
 30
0.0
 40
21.97496012256898
100
AcDbArc
 50
107.3549455151808
 51
114.4890787318129
  0
LINE
  5
3124
330
19
100
AcDbEntity
  8
OUT57
100
AcDbLine
 10
377.5232319899
 20
322.9685377914284
 30
0.0
 11
411.720640897364
 21
343.0467272495648
 31
0.0
  0
LINE
  5
3125
330
19
100
AcDbEntity
  8
OUT57
100
AcDbLine
 10
453.4947784625221
 20
318.6567780048708
 30
0.0
 11
453.4947784625209
 21
281.770238897484
 31
0.0
  0
LINE
  5
3126
330
19
100
AcDbEntity
  8
CTR34
100
AcDbLine
 10
453.4947784625223
 20
321.5192444333997
 30
0.0
 11
414.2747784625223
 21
321.5192444334011
 31
0.0
  0
LINE
  5
3127
330
19
100
AcDbEntity
  8
OUT57
100
AcDbLine
 10
451.0263249351426
 20
322.9685377914271
 30
0.0
 11
416.8289160276793
 21
343.0467272495647
 31
0.0
  0
ARC
  5
3129
330
19
100
AcDbEntity
  8
OUT57
100
AcDbCircle
 10
448.494778462524
 20
318.6567780048701
 30
0.0
 40
5.0
100
AcDbArc
 50
359.9999999999965
 51
59.5816951200882
  0
LINE
  5
312A
330
19
100
AcDbEntity
  8
OUT57
100
AcDbLine
 10
414.2647784625202
 20
269.9207299277898
 30
0.0
 11
414.2747784625201
 21
269.9207299277899
 31
0.0
  0
LINE
  5
312B
330
19
100
AcDbEntity
  8
CTR34
100
AcDbLine
 10
414.2747784625201
 20
245.2657474100847
 30
0.0
 11
414.2747784625201
 21
359.7349164270018
 31
0.0
  0
ARC
  5
312C
330
19
100
AcDbEntity
  8
OUT57
100
AcDbCircle
 10
414.2747784625207
 20
284.5867484949044
 30
0.0
 40
39.32100108481968
100
AcDbArc
 50
184.1075359390186
 51
270.0
  0
ARC
  5
312D
330
19
100
AcDbEntity
  8
OUT57
100
AcDbCircle
 10
414.2747784625201
 20
284.5867484949044
 30
0.0
 40
39.32100108481968
100
AcDbArc
 50
270.0
 51
355.8924640609809
  0
ARC
  5
312F
330
19
100
AcDbEntity
  8
OUT57
100
AcDbCircle
 10
407.7198602711756
 20
323.0486279495564
 30
0.0
 40
21.97496012255806
100
AcDbArc
 50
65.51092126817636
 51
72.64505448481239
  0
LINE
  5
313A
330
19
100
AcDbEntity
  8
CTR34
100
AcDbLine
 10
400.3182851177995
 20
350.4491322819051
 30
0.0
 11
428.2312718073922
 21
350.4491322819051
 31
0.0
  0
CIRCLE
  5
3148
330
19
100
AcDbEntity
  8
OUT57
100
AcDbCircle
 10
266.8473492751121
 20
170.8219902845583
 30
0.0
 40
10.92446865197715
  0
LINE
  5
3149
330
19
100
AcDbEntity
  8
OUT57
100
AcDbLine
 10
242.832250857336
 20
155.0292053565672
 30
0.0
 11
309.5034599839094
 21
155.0292053565672
 31
0.0
  0
LINE
  5
3150
330
19
100
AcDbEntity
  8
OUT57
100
AcDbLine
 10
337.0347586751859
 20
85.10143050731467
 30
0.0
 11
358.0347099900482
 21
85.05621133641672
 31
0.0
  0
INSERT
  5
31AC
330
19
100
AcDbEntity
  8
CTR34
100
AcDbBlockReference
  2
2.5gm Servo Top
 10
159.6669130319968
 20
139.9811453414345
 30
0.0
 50
180.0
  0
TEXT
  5
32A2
330
19
100
AcDbEntity
  8
TEXT
100
AcDbText
 10
388.6777658215092
 20
235.6760442508257
 30
0.0
 40
3.5
  1
SHADOWS SHOWN ARE NOT REDUCED BY THE
100
AcDbText
  0
TEXT
  5
32A3
330
19
100
AcDbEntity
  8
TEXT
100
AcDbText
 10
414.437863655764
 20
230.4260442508257
 30
0.0
 40
3.5
  1
THICKNESS OF THE PLANKING.
100
AcDbText
  0
TEXT
  5
3308
330
19
100
AcDbEntity
  8
TEXT
100
AcDbText
 10
52.73645745219193
 20
304.3211311399327
 30
0.0
 40
3.5
  1
NOTE YOU MAY NEED TO 
100
AcDbText
  0
TEXT
  5
3309
330
19
100
AcDbEntity
  8
TEXT
100
AcDbText
 10
52.73645745219193
 20
299.0711311399327
 30
0.0
 40
3.5
  1
TRIM TRANSOM TO FIT
100
AcDbText
  0
TEXT
  5
330A
330
19
100
AcDbEntity
  8
TEXT
100
AcDbText
 10
52.73645745219193
 20
293.8211311399327
 30
0.0
 40
3.5
  1
IN THE MEASURING BOX.
100
AcDbText
  0
LEADER
  5
330B
330
19
100
AcDbEntity
  8
TEXT
100
AcDbLeader
  3
STANDARD
 76
     2
 10
32.43440470788514
 20
303.3191706660219
 30
0.0
 10
51.91064343151929
 20
300.2281852895709
 30
0.0
1001
ACAD
1000
DSTYLE
1002
{
1070
   147
1040
0.09
1070
    77
1070
     0
1070
    41
1040
3.0
1070
    42
1040
2.5
1070
    43
1040
10.0
1070
    44
1040
2.5
1070
    46
1040
1.25
1070
    73
1070
     0
1070
    74
1070
     0
1070
    78
1070
     1
1070
   140
1040
3.0
1070
   141
1040
-3.0
1070
   143
1040
0.039
1070
   145
1040
1.5
1070
   176
1070
   256
1070
   177
1070
   256
1070
   178
1070
   256
1070
   271
1070
     2
1002
}
  0
ARC
  5
34AC
330
19
100
AcDbEntity
  8
CTR34
100
AcDbCircle
 10
188.9486732112486
 20
129.6859261705366
 30
0.0
 40
59.99999999999999
100
AcDbArc
 50
29.99999999999928
 51
119.9999999999997
  0
LINE
  5
34AD
330
19
100
AcDbEntity
  8
CTR34
100
AcDbLine
 10
188.9486732112486
 20
129.6859261705366
 30
0.0
 11
240.9101974383151
 21
159.6859261705366
 31
0.0
  0
LINE
  5
34AE
330
19
100
AcDbEntity
  8
CTR34
100
AcDbLine
 10
188.9486732112486
 20
129.6859261705366
 30
0.0
 11
158.9486732112487
 21
181.6474503976029
 31
0.0
  0
INSERT
  5
34B2
330
19
100
AcDbEntity
  8
OUT57
100
AcDbBlockReference
  2
9gm SERVO TOP
 10
188.9486732112486
 20
129.6859261705366
 30
0.0
 41
-1.0
 50
180.0
  0
LINE
  5
34B6
330
19
100
AcDbEntity
  8
OUT57
100
AcDbLine
 10
166.482994159669
 20
123.6859261705366
 30
0.0
 11
199.9486732112486
 21
123.6859261705366
 31
0.0
  0
LINE
  5
34B7
330
19
100
AcDbEntity
  8
HID34
100
AcDbLine
 10
171.9486732112486
 20
135.6859261705366
 30
0.0
 11
171.9486732112486
 21
123.6859261705366
 31
0.0
  0
LINE
  5
34B8
330
19
100
AcDbEntity
  8
HID34
100
AcDbLine
 10
171.9486732112486
 20
123.6859261705366
 30
0.0
 11
194.9486732112486
 21
123.6859261705366
 31
0.0
  0
LINE
  5
34B9
330
19
100
AcDbEntity
  8
HID34
100
AcDbLine
 10
194.9486732112486
 20
123.6859261705366
 30
0.0
 11
194.9486732112486
 21
135.6859261705366
 31
0.0
  0
TEXT
  5
35A8
330
19
100
AcDbEntity
  8
DIM34
100
AcDbText
 10
377.046449535125
 20
383.3625452666506
 30
0.0
 40
3.5
  1
SHADOWS BUILT TO THIS LINE 
100
AcDbText
  0
TEXT
  5
35A9
330
19
100
AcDbEntity
  8
DIM34
100
AcDbText
 10
377.046449535125
 20
378.1125452666506
 30
0.0
 40
3.5
  1
AND HULL CONSTRUCTED FROM A
100
AcDbText
  0
TEXT
  5
35AA
330
19
100
AcDbEntity
  8
DIM34
100
AcDbText
 10
377.046449535125
 20
372.8625452666506
 30
0.0
 40
3.5
  1
STRONGBACK UPSIDE DOWN
100
AcDbText
  0
LEADER
  5
35AB
330
19
100
AcDbEntity
  8
DIM34
100
AcDbLeader
  3
STANDARD
 76
     2
 10
474.3766045491061
 20
362.2849164270019
 30
0.0
 10
454.9851560405735
 20
372.1751711271125
 30
0.0
1001
ACAD
1000
DSTYLE
1002
{
1070
   143
1040
0.039
1070
    41
1040
3.0
1070
   141
1040
-3.0
1070
   176
1070
   256
1070
   177
1070
   256
1070
   178
1070
   256
1070
   271
1070
     2
1070
    46
1040
1.25
1070
    43
1040
10.0
1070
    44
1040
2.5
1070
    42
1040
2.5
1070
    73
1070
     0
1070
    74
1070
     0
1070
   145
1040
1.5
1070
   140
1040
3.0
1070
    78
1070
     1
1002
}
  0
LINE
  5
35AC
330
19
100
AcDbEntity
  8
CTR34
100
AcDbLine
 10
27.57792502986783
 20
277.8442928092761
 30
0.0
 11
363.5779250298679
 21
277.8442928092761
 31
0.0
  0
LINE
  5
35AD
330
19
100
AcDbEntity
  8
CTR34
100
AcDbLine
 10
369.7518463979358
 20
277.8796152797597
 30
0.0
 11
458.1918463979365
 21
277.8796152797567
 31
0.0
  0
LINE
  5
35AE
330
19
100
AcDbEntity
  8
CTR34
100
AcDbLine
 10
464.0840176983529
 20
277.8442928092761
 30
0.0
 11
529.8334472152472
 21
277.8442928092761
 31
0.0
  0
TEXT
  5
35D7
330
19
100
AcDbEntity
  8
DIM34
100
AcDbText
 10
187.2710682353607
 20
45.42971305047168
 30
0.0
 40
3.5
  1
310gms
100
AcDbText
  0
TEXT
  5
3660
330
19
100
AcDbEntity
  8
TEXT
100
AcDbText
 10
390.4415061106769
 20
224.7006604383675
 30
0.0
 40
3.5
  1
SEE SHT 2 FOR SHADOWS REDUCED BY 1.6MM
100
AcDbText
  0
TEXT
  5
3699
330
19
100
AcDbEntity
  8
DIM34
100
AcDbText
 10
21.58414428093695
 20
51.04855578427886
 30
0.0
 40
3.5
  1
NOTE APART FROM THE TRANSOM
100
AcDbText
  0
TEXT
  5
369A
330
19
100
AcDbEntity
  8
DIM34
100
AcDbText
 10
21.58414428093695
 20
45.79855578427886
 30
0.0
 40
3.5
  1
AND BOW BULKHEAD THIS IS THE
100
AcDbText
  0
TEXT
  5
369B
330
19
100
AcDbEntity
  8
DIM34
100
AcDbText
 10
21.58414428093695
 20
40.54855578427886
 30
0.0
 40
3.5
  1
ONLY BULKHEAD IN THE BOAT
100
AcDbText
  0
TEXT
  5
369C
330
19
100
AcDbEntity
  8
DIM34
100
AcDbText
 10
21.58414428093695
 20
35.29855578427886
 30
0.0
 40
3.5
  1
OTHER SHADOWS SHOULD BE
100
AcDbText
  0
TEXT
  5
369D
330
19
100
AcDbEntity
  8
DIM34
100
AcDbText
 10
21.58414428093695
 20
30.04855578427886
 30
0.0
 40
3.5
  1
COVERED WITH FILM TO PREVENT
100
AcDbText
  0
TEXT
  5
369E
330
19
100
AcDbEntity
  8
DIM34
100
AcDbText
 10
21.58414428093695
 20
24.79855578427886
 30
0.0
 40
3.5
  1
PLANKING ADHEARING TO THEM.
100
AcDbText
  0
LEADER
  5
369F
330
19
100
AcDbEntity
  8
DIM34
100
AcDbLeader
  3
STANDARD
 76
     2
 10
209.6808570944525
 20
269.2911879884848
 30
0.0
 10
52.59908130576792
 20
117.5359832482172
 30
0.0
1001
ACAD
1000
DSTYLE
1002
{
1070
   143
1040
0.039
1070
    41
1040
3.0
1070
   141
1040
-3.0
1070
   176
1070
   256
1070
   177
1070
   256
1070
   178
1070
   256
1070
   271
1070
     2
1070
    46
1040
1.25
1070
    43
1040
10.0
1070
    44
1040
2.5
1070
    42
1040
2.5
1070
    73
1070
     0
1070
    74
1070
     0
1070
   145
1040
1.5
1070
   140
1040
3.0
1070
    78
1070
     1
1002
}
  0
TEXT
  5
36A3
330
19
100
AcDbEntity
  8
DIM34
100
AcDbText
 10
382.6650024196266
 20
206.8987778867145
 30
0.0
 40
3.5
  1
AFTER COMPLETING THE HULL IT CAN BE REMOVED
100
AcDbText
  0
TEXT
  5
36A4
330
19
100
AcDbEntity
  8
DIM34
100
AcDbText
 10
382.6650024196266
 20
201.6487778867145
 30
0.0
 40
3.5
  1
FROM THE STONGBACK AND THE DECKING MAY THEN
100
AcDbText
  0
TEXT
  5
36A5
330
19
100
AcDbEntity
  8
DIM34
100
AcDbText
 10
382.6650024196266
 20
196.3987778867145
 30
0.0
 40
3.5
  1
BE CONSTRUCTED.
100
AcDbText
  0
LINE
  5
36DC
330
19
100
AcDbEntity
  8
CTR34
100
AcDbLine
 10
157.8808570944524
 20
246.5057763313239
 30
0.0
 11
157.8808570944526
 21
362.2849164270018
 31
0.0
  0
LINE
  5
36DD
330
19
100
AcDbEntity
  8
CTR34
100
AcDbLine
 10
217.8808570944524
 20
245.2298279391415
 30
0.0
 11
217.8808570944526
 21
362.2849164270017
 31
0.0
  0
LINE
  5
36F0
330
19
100
AcDbEntity
  8
OUT57
100
AcDbLine
 10
452.2497784625202
 20
284.4807763313233
 30
0.0
 11
452.2497784625202
 21
313.7367364998047
 31
0.0
  0
LINE
  5
36F1
330
19
100
AcDbEntity
  8
OUT57
100
AcDbLine
 10
376.2997784625201
 20
284.4807763313233
 30
0.0
 11
376.2997784625201
 21
313.7367364998047
 31
0.0
  0
ARC
  5
36F3
330
19
100
AcDbEntity
  8
OUT57
100
AcDbCircle
 10
414.2747784625201
 20
284.4807763313233
 30
0.0
 40
37.9749999999994
100
AcDbArc
 50
180.0
 51
0.0
  0
LINE
  5
36F4
330
19
100
AcDbEntity
  8
OUT57
100
AcDbLine
 10
381.2997784625201
 20
318.7367364998047
 30
0.0
 11
447.2497784625202
 21
318.7367364998047
 31
0.0
  0
ARC
  5
36F6
330
19
100
AcDbEntity
  8
OUT57
100
AcDbCircle
 10
381.2997784625201
 20
313.7367364998047
 30
0.0
 40
5.0
100
AcDbArc
 50
90.0
 51
180.0
  0
ARC
  5
36F7
330
19
100
AcDbEntity
  8
OUT57
100
AcDbCircle
 10
447.2497784625202
 20
313.7367364998047
 30
0.0
 40
5.0
100
AcDbArc
 50
0.0
 51
90.0
  0
LINE
  5
36FB
330
19
100
AcDbEntity
  8
CTR34
100
AcDbLine
 10
376.29977846252
 20
316.5992029283336
 30
0.0
 11
415.51977846252
 21
316.5992029283335
 31
0.0
  0
LINE
  5
36FC
330
19
100
AcDbEntity
  8
CTR34
100
AcDbLine
 10
454.7397784625221
 20
316.5992029283321
 30
0.0
 11
415.5197784625221
 21
316.5992029283335
 31
0.0
  0
LINE
  5
3736
330
19
100
AcDbEntity
  8
CTR34
100
AcDbLine
 10
238.5561846603189
 20
243.9410648135706
 30
0.0
 11
240.6187955383401
 21
362.107962874592
 31
0.0
  0
LINE
  5
373A
330
19
100
AcDbEntity
  8
OUT57
100
AcDbLine
 10
237.832250857336
 20
347.6918290943729
 30
0.0
 11
242.8322508573361
 21
347.6918290943729
 31
0.0
  0
LINE
  5
373B
330
19
100
AcDbEntity
  8
OUT57
100
AcDbLine
 10
237.832250857336
 20
345.6918290943729
 30
0.0
 11
237.832250857336
 21
347.6918290943729
 31
0.0
  0
LINE
  5
373C
330
19
100
AcDbEntity
  8
OUT57
100
AcDbLine
 10
242.8322508573361
 20
347.6918290943729
 30
0.0
 11
242.8322508573361
 21
345.6918290943729
 31
0.0
  0
LINE
  5
3752
330
19
100
AcDbEntity
  8
HID34
100
AcDbLine
 10
207.880857094453
 20
51.77100598844601
 30
0.0
 11
208.1699246371229
 21
62.93025486545933
 31
0.0
  0
LINE
  5
3754
330
19
100
AcDbEntity
  8
OUT57
100
AcDbLine
 10
208.1699501399291
 20
62.93123938333198
 30
0.0
 11
212.8808570944524
 21
244.7924841859771
 31
0.0
  0
LINE
  5
37AE
330
19
100
AcDbEntity
  8
HID34
100
AcDbLine
 10
231.083090813263
 20
245.5479687917989
 30
0.0
 11
236.177022093351
 21
250.8856538850158
 31
0.0
  0
LINE
  5
37AF
330
19
100
AcDbEntity
  8
HID34
100
AcDbLine
 10
241.1845299492525
 20
251.2721443225873
 30
0.0
 11
246.1053969872519
 21
246.6949856268889
 31
0.0
  0
LINE
  5
37B0
330
19
100
AcDbEntity
  8
HID34
100
AcDbLine
 10
236.177022093351
 20
250.8856538850158
 30
0.0
 11
241.1845299492525
 21
251.2721443225873
 31
0.0
  0
LINE
  5
37E6
330
19
100
AcDbEntity
  8
HID34
100
AcDbLine
 10
157.1766098565517
 20
271.6720525961878
 30
0.0
 11
157.8659072487735
 21
247.0123262962346
 31
0.0
  0
LINE
  5
37E9
330
19
100
AcDbEntity
  8
HID34
100
AcDbLine
 10
163.1860732519918
 20
56.68252236819444
 30
0.0
 11
163.366812641886
 21
50.2165413029727
 31
0.0
  0
LINE
  5
380C
330
19
100
AcDbEntity
  8
OUT57
100
AcDbLine
 10
157.8659072487735
 20
247.0123262962346
 30
0.0
 11
163.1860732519918
 21
56.68252236819444
 31
0.0
  0
LINE
  5
380E
330
19
100
AcDbEntity
  8
HID34
100
AcDbLine
 10
157.1766098565517
 20
271.6720525961878
 30
0.0
 11
165.2164198119858
 21
278.5231895544077
 31
0.0
  0
LINE
  5
380F
330
19
100
AcDbEntity
  8
HID34
100
AcDbLine
 10
165.2164198119858
 20
278.5231895544077
 30
0.0
 11
165.3808570944525
 21
281.734916427002
 31
0.0
  0
LINE
  5
3846
330
19
100
AcDbEntity
  8
OUT57
100
AcDbLine
 10
192.7556265149659
 20
194.3551462818078
 30
0.0
 11
192.7556265149659
 21
115.7032644313266
 31
0.0
  0
ARC
  5
3848
330
19
100
AcDbEntity
  8
OUT57
100
AcDbCircle
 10
177.7556265149659
 20
183.8598100048589
 30
0.0
 40
5.000000000000004
100
AcDbArc
 50
0.0000000000000254
 51
90.83114130910141
  0
TEXT
  5
384B
330
19
100
AcDbEntity
  8
TXT34
 62
     3
100
AcDbText
 10
324.6687401758317
 20
25.66212361343645
 30
0.0
 40
1.5
  1
FIN MAST AND SHEET LINE MOVED FWD FIN WIDTH INCREASED
100
AcDbText
  0
TEXT
  5
384C
330
19
100
AcDbEntity
  8
TXT34
 62
     3
100
AcDbText
 10
398.2956095552663
 20
25.66212361343645
 30
0.0
 40
1.75
  1
22/03/2015
100
AcDbText
  0
TEXT
  5
384D
330
19
100
AcDbEntity
  8
TXT34
 62
     3
100
AcDbText
 10
416.8305065106065
 20
25.66212361343645
 30
0.0
 40
1.9796
  1
PGSJ
 72
     2
 11
423.6235981772732
 21
25.66212361343645
 31
0.0
100
AcDbText
  0
LINE
  5
384F
330
19
100
AcDbEntity
  8
HID34
100
AcDbLine
 10
197.8234363000597
 20
159.9407825770543
 30
0.0
 11
201.0097548770322
 21
159.9333984512683
 31
0.0
  0
LINE
  5
38B1
330
19
100
AcDbEntity
  8
OUT57
100
AcDbLine
 10
31.3718949963324
 20
312.8286325844188
 30
0.0
 11
35.26775323421786
 21
277.9607013553444
 31
0.0
  0
POLYLINE
  5
38B3
330
19
100
AcDbEntity
  8
OUT57
100
AcDb2dPolyline
 66
     1
 10
0.0
 20
0.0
 30
0.0
  0
VERTEX
  5
38FA
330
38B3
100
AcDbEntity
  8
OUT57
100
AcDbVertex
100
AcDb2dVertex
 10
35.38019435555202
 20
276.799933593447
 30
0.0
  0
VERTEX
  5
38FB
330
38B3
100
AcDbEntity
  8
OUT57
100
AcDbVertex
100
AcDb2dVertex
 10
36.01017563167598
 20
276.5003683156781
 30
0.0
  0
VERTEX
  5
38FC
330
38B3
100
AcDbEntity
  8
OUT57
100
AcDbVertex
100
AcDb2dVertex
 10
38.42321573214453
 20
275.4183908164156
 30
0.0
  0
VERTEX
  5
38FD
330
38B3
100
AcDbEntity
  8
OUT57
100
AcDbVertex
100
AcDb2dVertex
 10
40.67529850933882
 20
274.4614703519217
 30
0.0
  0
VERTEX
  5
38FE
330
38B3
100
AcDbEntity
  8
OUT57
100
AcDbVertex
100
AcDb2dVertex
 10
42.80714078793849
 20
273.5932216460391
 30
0.0
  0
VERTEX
  5
38FF
330
38B3
100
AcDbEntity
  8
OUT57
100
AcDbVertex
100
AcDb2dVertex
 10
44.85837963932383
 20
272.7808445702005
 30
0.0
  0
VERTEX
  5
3900
330
38B3
100
AcDbEntity
  8
OUT57
100
AcDbVertex
100
AcDb2dVertex
 10
46.85348646780186
 20
272.010305830969
 30
0.0
  0
VERTEX
  5
3901
330
38B3
100
AcDbEntity
  8
OUT57
100
AcDbVertex
100
AcDb2dVertex
 10
48.81087583630099
 20
271.2731678645699
 30
0.0
  0
VERTEX
  5
3902
330
38B3
100
AcDbEntity
  8
OUT57
100
AcDbVertex
100
AcDb2dVertex
 10
50.74836713450321
 20
270.5612200297216
 30
0.0
  0
VERTEX
  5
3903
330
38B3
100
AcDbEntity
  8
OUT57
100
AcDbVertex
100
AcDb2dVertex
 10
52.68379264102067
 20
269.8662394041685
 30
0.0
  0
VERTEX
  5
3904
330
38B3
100
AcDbEntity
  8
OUT57
100
AcDbVertex
100
AcDb2dVertex
 10
54.63508181443434
 20
269.1799634253475
 30
0.0
  0
VERTEX
  5
3905
330
38B3
100
AcDbEntity
  8
OUT57
100
AcDbVertex
100
AcDb2dVertex
 10
56.61694099966533
 20
268.4955331109906
 30
0.0
  0
VERTEX
  5
3906
330
38B3
100
AcDbEntity
  8
OUT57
100
AcDbVertex
100
AcDb2dVertex
 10
58.62999143713661
 20
267.8121266922187
 30
0.0
  0
VERTEX
  5
3907
330
38B3
100
AcDbEntity
  8
OUT57
100
AcDbVertex
100
AcDb2dVertex
 10
60.67110720663808
 20
267.1305117157918
 30
0.0
  0
VERTEX
  5
3908
330
38B3
100
AcDbEntity
  8
OUT57
100
AcDbVertex
100
AcDb2dVertex
 10
62.7371008781173
 20
266.4514778150851
 30
0.0
  0
VERTEX
  5
3909
330
38B3
100
AcDbEntity
  8
OUT57
100
AcDbVertex
100
AcDb2dVertex
 10
64.82478223934474
 20
265.7758162703092
 30
0.0
  0
VERTEX
  5
390A
330
38B3
100
AcDbEntity
  8
OUT57
100
AcDbVertex
100
AcDb2dVertex
 10
66.93095877062497
 20
265.104319722852
 30
0.0
  0
VERTEX
  5
390B
330
38B3
100
AcDbEntity
  8
OUT57
100
AcDbVertex
100
AcDb2dVertex
 10
69.05243604889543
 20
264.4377819421667
 30
0.0
  0
VERTEX
  5
390C
330
38B3
100
AcDbEntity
  8
OUT57
100
AcDbVertex
100
AcDb2dVertex
 10
71.18601809642713
 20
263.7769976337646
 30
0.0
  0
VERTEX
  5
390D
330
38B3
100
AcDbEntity
  8
OUT57
100
AcDbVertex
100
AcDb2dVertex
 10
73.32850768647057
 20
263.1227622795162
 30
0.0
  0
VERTEX
  5
390E
330
38B3
100
AcDbEntity
  8
OUT57
100
AcDbVertex
100
AcDb2dVertex
 10
73.59251541643853
 20
263.0432612468235
 30
0.0
  0
SEQEND
  5
390F
330
38B3
100
AcDbEntity
  8
OUT57
  0
POLYLINE
  5
38CC
330
19
100
AcDbEntity
  8
OUT57
100
AcDb2dPolyline
 66
     1
 10
0.0
 20
0.0
 30
0.0
  0
VERTEX
  5
38F4
330
38CC
100
AcDbEntity
  8
OUT57
100
AcDbVertex
100
AcDb2dVertex
 10
73.59251541643859
 20
263.0432612468235
 30
0.0
  0
VERTEX
  5
38F5
330
38CC
100
AcDbEntity
  8
OUT57
100
AcDbVertex
100
AcDb2dVertex
 10
75.4767066161103
 20
262.4758720034013
 30
0.0
  0
VERTEX
  5
38F6
330
38CC
100
AcDbEntity
  8
OUT57
100
AcDbVertex
100
AcDb2dVertex
 10
77.62741595500107
 20
261.8371234573373
 30
0.0
  0
VERTEX
  5
38F7
330
38CC
100
AcDbEntity
  8
OUT57
100
AcDbVertex
100
AcDb2dVertex
 10
79.77743698240536
 20
261.2073135163414
 30
0.0
  0
VERTEX
  5
38F8
330
38CC
100
AcDbEntity
  8
OUT57
100
AcDbVertex
100
AcDb2dVertex
 10
79.78401694810461
 20
261.2054124027936
 30
0.0
  0
SEQEND
  5
38F9
330
38CC
100
AcDbEntity
  8
OUT57
  0
LINE
  5
3944
330
19
100
AcDbEntity
  8
OUT57
100
AcDbLine
 10
31.37189499633241
 20
167.0371700574053
 30
0.0
 11
31.37189499633241
 21
143.0212406557292
 31
0.0
  0
LINE
  5
3945
330
19
100
AcDbEntity
  8
HID34
100
AcDbLine
 10
35.26775323421787
 20
168.1390975655544
 30
0.0
 11
35.26775323421787
 21
141.91931314758
 31
0.0
  0
LINE
  5
3980
330
19
100
AcDbEntity
  8
CTR34
100
AcDbLine
 10
238.5561846603189
 20
243.9410648135706
 30
0.0
 11
240.6187955383401
 21
362.107962874592
 31
0.0
  0
LINE
  5
3981
330
19
100
AcDbEntity
  8
CTR34
100
AcDbLine
 10
310.5034599839094
 20
349.1816867369803
 30
0.0
 11
310.5034599839094
 21
359.2798691938263
 31
0.0
  0
LINE
  5
3991
330
19
100
AcDbEntity
  8
OUT57
100
AcDbLine
 10
311.5034599839094
 20
155.0292053565672
 30
0.0
 11
362.7254129169643
 21
155.0292053565672
 31
0.0
  0
LINE
  5
3995
330
19
100
AcDbEntity
  8
HID34
100
AcDbLine
 10
209.6808570944525
 20
278.5349164270019
 30
0.0
 11
209.6808570944525
 21
244.9538250904583
 31
0.0
  0
LINE
  5
39A6
330
19
100
AcDbEntity
  8
CTR34
100
AcDbLine
 10
157.8808570944526
 20
193.0054548716753
 30
0.0
 11
157.8808570944526
 21
117.0529558414592
 31
0.0
  0
LINE
  5
39D5
330
19
100
AcDbEntity
  8
OUT57
100
AcDbLine
 10
485.3783213555473
 20
284.1280436547592
 30
0.0
 11
485.3783213555473
 21
307.7349164270018
 31
0.0
  0
LINE
  5
39D6
330
19
100
AcDbEntity
  8
OUT57
100
AcDbLine
 10
509.3783213555473
 20
284.1280436547544
 30
0.0
 11
509.3783213555473
 21
307.7349164270018
 31
0.0
  0
LINE
  5
39E6
330
19
100
AcDbEntity
  8
OUT57
100
AcDbLine
 10
490.3783213555473
 20
312.7349164270018
 30
0.0
 11
504.3783213555473
 21
312.7349164270018
 31
0.0
  0
ARC
  5
39E7
330
19
100
AcDbEntity
  8
OUT57
100
AcDbCircle
 10
490.3783213555473
 20
307.7349164270018
 30
0.0
 40
5.0
100
AcDbArc
 50
89.99999999999999
 51
180.0
  0
ARC
  5
39E8
330
19
100
AcDbEntity
  8
OUT57
100
AcDbCircle
 10
504.3783213555473
 20
307.7349164270018
 30
0.0
 40
5.0
100
AcDbArc
 50
0.0
 51
90.0
  0
LINE
  5
3A68
330
19
100
AcDbEntity
  8
OUT57
100
AcDbLine
 10
422.9687293712152
 20
151.7478692554501
 30
0.0
 11
522.9687293712152
 21
151.7478692554501
 31
0.0
  0
LINE
  5
3A69
330
19
100
AcDbEntity
  8
OUT57
100
AcDbLine
 10
522.9687293712152
 20
151.7478692554501
 30
0.0
 11
522.9687293712152
 21
119.2469700749636
 31
0.0
  0
LINE
  5
3A6A
330
19
100
AcDbEntity
  8
OUT57
100
AcDbLine
 10
422.9687293712152
 20
151.7478692554501
 30
0.0
 11
422.9687293712152
 21
119.2469700749636
 31
0.0
  0
DIMENSION
  5
3A6C
330
19
100
AcDbEntity
  8
DIM34
100
AcDbDimension
  2
*D11
 10
522.9687293712152
 20
130.6662049221615
 30
0.0
 11
472.9687293712152
 21
135.1662049221615
 31
0.0
 70
    32
 71
     5
 42
100.0
  3
STANDARD
100
AcDbAlignedDimension
 13
422.9687293712152
 23
119.2469700749636
 33
0.0
 14
522.9687293712152
 24
119.2469700749636
 34
0.0
100
AcDbRotatedDimension
1001
ACAD
1000
DSTYLE
1002
{
1070
   143
1040
0.039
1070
    41
1040
3.0
1070
   141
1040
-3.0
1070
   176
1070
   256
1070
   177
1070
   256
1070
   178
1070
   256
1070
   271
1070
     2
1070
    46
1040
1.25
1070
    43
1040
10.0
1070
    44
1040
2.5
1070
    42
1040
2.5
1070
    73
1070
     0
1070
    74
1070
     0
1070
   145
1040
1.5
1070
   140
1040
3.0
1070
    78
1070
     1
1002
}
  0
LINE
  5
3A7A
330
19
100
AcDbEntity
  8
CTR34
100
AcDbLine
 10
362.8950206260496
 20
362.2849164270017
 30
0.0
 11
363.5779250298679
 21
277.8442928092761
 31
0.0
  0
LINE
  5
3AD8
330
19
100
AcDbEntity
  8
CTR34
100
AcDbLine
 10
31.37189499633241
 20
312.8286325844188
 30
0.0
 11
31.3718949963324
 21
362.2849164270019
 31
0.0
  0
TEXT
  5
3B6E
330
19
100
AcDbEntity
  8
TEXT
100
AcDbText
 10
366.9296857570444
 20
344.958023114483
 30
0.0
 40
3.5
  1
STN 0
 50
90.0
100
AcDbText
  0
TEXT
  5
3B6F
330
19
100
AcDbEntity
  8
TEXT
100
AcDbText
 10
341.4968639596178
 20
344.958023114483
 30
0.0
 40
3.5
  1
STN 25
 50
90.0
100
AcDbText
  0
TEXT
  5
3B70
330
19
100
AcDbEntity
  8
TEXT
100
AcDbText
 10
282.3639846318639
 20
342.9452959191429
 30
0.0
 40
3.5
  1
STN 85
 50
90.0
100
AcDbText
  0
TEXT
  5
3B71
330
19
100
AcDbEntity
  8
TEXT
100
AcDbText
 10
221.6957424639144
 20
339.715830367682
 30
0.0
 40
3.5
  1
STN 145
 50
90.0
100
AcDbText
  0
TEXT
  5
3B72
330
19
100
AcDbEntity
  8
TEXT
100
AcDbText
 10
162.1447943435902
 20
339.715830367682
 30
0.0
 40
3.5
  1
STN 205
 50
90.0
100
AcDbText
  0
TEXT
  5
3B73
330
19
100
AcDbEntity
  8
TEXT
100
AcDbText
 10
102.9140126110097
 20
339.715830367682
 30
0.0
 40
3.5
  1
STN 265
 50
90.0
100
AcDbText
  0
TEXT
  5
3B74
330
19
100
AcDbEntity
  8
TEXT
100
AcDbText
 10
42.40256532745454
 20
340.0359967554257
 30
0.0
 40
3.5
  1
STN 325
 50
90.0
100
AcDbText
  0
TEXT
  5
3B75
330
19
100
AcDbEntity
  8
TEXT
100
AcDbText
 10
30.23624259319476
 20
334.5931681637832
 30
0.0
 40
3.5
  1
STN 331.5
 50
90.0
100
AcDbText
  0
TEXT
  5
3B76
330
19
100
AcDbEntity
  8
TXT34
 62
     3
100
AcDbText
 10
318.4569795101308
 20
29.88997562097313
 30
0.0
 40
1.9796
  1
3
100
AcDbText
  0
TEXT
  5
3B77
330
19
100
AcDbEntity
  8
TXT34
 62
     3
100
AcDbText
 10
324.6687401758317
 20
29.88997562097313
 30
0.0
 40
1.5
  1
sTATION POSITIONS ADDED
100
AcDbText
  0
TEXT
  5
3B78
330
19
100
AcDbEntity
  8
TXT34
 62
     3
100
AcDbText
 10
398.2956095552663
 20
29.88997562097313
 30
0.0
 40
1.75
  1
19/04/2015
100
AcDbText
  0
TEXT
  5
3B79
330
19
100
AcDbEntity
  8
TXT34
 62
     3
100
AcDbText
 10
416.8305065106065
 20
29.88997562097313
 30
0.0
 40
1.9796
  1
PGSJ
 72
     2
 11
423.6235981772732
 21
29.88997562097313
 31
0.0
100
AcDbText
  0
LINE
  5
3B7A
330
19
100
AcDbEntity
  8
BOR715
 62
    15
100
AcDbLine
 10
317.6561643868932
 20
33.11634981059431
 30
0.0
 11
432.7890664963305
 21
33.11634981059431
 31
0.0
  0
VIEWPORT
  5
1B1
330
16
100
AcDbEntity
 67
     1
  8
0
100
AcDbViewport
 10
5.249999639556163
 20
3.999999883606677
 30
0.0
 40
15.76761245747374
 41
8.992999745766948
 68
     1
 69
     1
 12
5.249999639556163
 22
3.999999883606677
 13
0.0
 23
0.0
 14
10.0
 24
10.0
 15
10.0
 25
10.0
 16
0.0
 26
0.0
 36
1.0
 17
0.0
 27
0.0
 37
0.0
 42
50.0
 43
0.0
 44
0.0
 45
8.992999745766948
 50
0.0
 51
0.0
 72
  2000
 90
    32800
  1

281
     0
 71
     1
 74
     0
110
9.271745696330154
120
15.8559998628491
130
0.0
111
1.0
121
0.0
131
0.0
112
0.0
122
1.0
132
0.0
 79
     0
146
0.0
170
     0
  0
VIEWPORT
  5
E91
330
16
100
AcDbEntity
 67
     1
  8
HID34
100
AcDbViewport
 10
5.24999976158142
 20
3.99999976158142
 30
0.0
 40
8.399999618530272
 41
6.399999618530273
 68
     2
 69
     2
 12
486.1400109776948
 22
241.7739220473486
 13
0.0
 23
0.0
 14
1.0
 24
1.0
 15
15.0
 25
15.0
 16
0.0
 26
0.0
 36
1.0
 17
0.0
 27
0.0
 37
0.0
 42
50.0
 43
0.0
 44
0.0
 45
741.0180433777933
 50
0.0
 51
0.0
 72
  2000
 90
    36928
  1

281
     0
 71
     1
 74
     0
110
9.271745696330154
120
15.8559998628491
130
0.0
111
1.0
121
0.0
131
0.0
112
0.0
122
1.0
132
0.0
 79
     0
146
0.0
170
     0
  0
ENDSEC
  0
SECTION
  2
OBJECTS
  0
DICTIONARY
  5
C
330
0
100
AcDbDictionary
281
     1
  3
ACAD_COLOR
350
221
  3
ACAD_DETAILVIEWSTYLE
350
35C4
  3
ACAD_GROUP
350
D
  3
ACAD_IMAGE_VARS
350
358A
  3
ACAD_LAYOUT
350
217
  3
ACAD_MATERIAL
350
220
  3
ACAD_MLEADERSTYLE
350
3586
  3
ACAD_MLINESTYLE
350
E
  3
ACAD_PLOTSETTINGS
350
218
  3
ACAD_PLOTSTYLENAME
350
215
  3
ACAD_SCALELIST
350
3561
  3
ACAD_SECTIONVIEWSTYLE
350
35C5
  3
ACAD_TABLESTYLE
350
222
  3
ACDB_RECOMPOSE_DATA
350
3B8F
  3
ACDBVARIABLEDICTIONARY
350
211
  3
AcDsDecomposeData
350
3B90
  3
APPDATA
350
3588
  0
DICTIONARY
  5
E95
330
2
100
AcDbDictionary
280
     1
281
     1
  3
ACAD_LAYERSTATES
360
E96
  0
DICTIONARY
  5
22C
330
19
100
AcDbDictionary
280
     1
281
     1
  3
ACAD_SORTENTS
360
22D
  0
DICTIONARY
  5
221
102
{ACAD_REACTORS
330
C
102
}
330
C
100
AcDbDictionary
281
     1
  0
DICTIONARY
  5
35C4
102
{ACAD_REACTORS
330
C
102
}
330
C
100
AcDbDictionary
281
     1
  0
DICTIONARY
  5
D
102
{ACAD_REACTORS
330
C
102
}
330
C
100
AcDbDictionary
281
     1
  0
RASTERVARIABLES
  5
358A
102
{ACAD_REACTORS
330
C
102
}
330
C
100
AcDbRasterVariables
 90
        0
 70
     1
 71
     1
 72
     0
  0
DICTIONARY
  5
217
102
{ACAD_REACTORS
330
C
102
}
330
C
100
AcDbDictionary
281
     1
  3
Layout1
350
21A
  3
Model
350
219
  0
DICTIONARY
  5
220
102
{ACAD_REACTORS
330
C
102
}
330
C
100
AcDbDictionary
281
     1
  3
ByBlock
350
3584
  3
ByLayer
350
3583
  3
Global
350
3585
  0
DICTIONARY
  5
3586
102
{ACAD_REACTORS
330
C
102
}
330
C
100
AcDbDictionary
281
     1
  3
Standard
350
3587
  0
DICTIONARY
  5
E
102
{ACAD_REACTORS
330
C
102
}
330
C
100
AcDbDictionary
281
     1
  3
STANDARD
350
12
  0
DICTIONARY
  5
218
102
{ACAD_REACTORS
330
C
102
}
330
C
100
AcDbDictionary
281
     1
  0
ACDBDICTIONARYWDFLT
  5
215
102
{ACAD_REACTORS
330
C
102
}
330
C
100
AcDbDictionary
281
     1
  3
Normal
350
216
100
AcDbDictionaryWithDefault
340
216
  0
DICTIONARY
  5
3561
102
{ACAD_REACTORS
330
C
102
}
330
C
100
AcDbDictionary
281
     1
  3
A0
350
3562
  3
A1
350
3563
  3
A2
350
3564
  3
A3
350
3565
  3
A4
350
3566
  3
A5
350
3567
  3
A6
350
3568
  3
A7
350
3569
  3
A8
350
356A
  3
A9
350
356B
  3
B0
350
356C
  3
B1
350
356D
  3
B2
350
356E
  3
B3
350
356F
  3
B4
350
3570
  3
B5
350
3571
  3
B6
350
3572
  3
B7
350
3573
  3
B8
350
3574
  3
B9
350
3575
  3
C0
350
3576
  3
C1
350
3577
  3
C2
350
3578
  3
C3
350
3579
  3
C4
350
357A
  3
C5
350
357B
  3
C6
350
357C
  3
C7
350
357D
  3
C8
350
357E
  3
C9
350
357F
  3
D0
350
3580
  3
D1
350
3581
  3
D2
350
3582
  0
DICTIONARY
  5
35C5
102
{ACAD_REACTORS
330
C
102
}
330
C
100
AcDbDictionary
281
     1
  0
DICTIONARY
  5
222
102
{ACAD_REACTORS
330
C
102
}
330
C
100
AcDbDictionary
281
     1
  3
Standard
350
223
  0
XRECORD
  5
3B8F
102
{ACAD_REACTORS
330
C
102
}
330
C
100
AcDbXrecord
280
     1
 90
        1
330
223
  0
DICTIONARY
  5
211
102
{ACAD_REACTORS
330
C
102
}
330
C
100
AcDbDictionary
281
     1
  3
CANNOSCALE
350
35B0
  3
CMLEADERSTYLE
350
35C1
  3
CTABLESTYLE
350
228
  3
DIMADEC
350
212
  3
MSLTSCALE
350
35C2
  3
XCLIPFRAME
350
35C3
  0
DICTIONARY
  5
3B90
102
{ACAD_REACTORS
330
C
102
}
330
C
100
AcDbDictionary
281
     1
  3
AcDsRecords
350
3B91
  3
AcDsSchemas
350
3B92
1001
ACAD
1070
     2
  0
DICTIONARY
  5
3588
102
{ACAD_REACTORS
330
C
102
}
330
C
100
AcDbDictionary
281
     1
  0
DICTIONARY
  5
E96
102
{ACAD_REACTORS
330
E95
102
}
330
E95
100
AcDbDictionary
281
     1
  3
ARGON_LAYERP_2
350
3A6B
  3
ARGON_LAYERP_3
350
3A79
  3
ARGON_LAYERP_4
350
3A7B
  3
ARGON_LAYERP_5
350
3AD7
  3
ARGON_LAYERP_6
350
3B42
  3
ARGON_LAYERP_7
350
3B6D
  3
ARGON_LAYERP_9
350
3943
  0
SORTENTSTABLE
  5
22D
102
{ACAD_REACTORS
330
22C
102
}
330
22C
100
AcDbSortentsTable
330
19
331
0
  5
23C
331
5D
  5
5D
331
71
  5
71
331
79
  5
79
331
8C
  5
8C
331
94
  5
94
331
9D
  5
9D
331
A8
  5
A8
331
A9
  5
A9
331
AA
  5
AA
331
AB
  5
AB
331
AC
  5
AC
331
AD
  5
AD
331
AE
  5
AE
331
AF
  5
AF
331
B0
  5
B0
331
B1
  5
B1
331
B2
  5
B2
331
B3
  5
B3
331
B4
  5
B4
331
B5
  5
B5
331
BB
  5
BB
331
C1
  5
C1
331
C9
  5
C9
331
CA
  5
CA
331
CB
  5
CB
331
CC
  5
CC
331
CD
  5
CD
331
CE
  5
CE
331
CF
  5
CF
331
D0
  5
D0
331
D1
  5
D1
331
D2
  5
D2
331
D3
  5
D3
331
D4
  5
D4
331
D5
  5
D5
331
D6
  5
D6
331
D7
  5
D7
331
D8
  5
D8
331
D9
  5
D9
331
DA
  5
DA
331
DB
  5
DB
331
DC
  5
DC
331
DD
  5
DD
331
DE
  5
DE
331
DF
  5
DF
331
E0
  5
E0
331
E1
  5
E1
331
E2
  5
E2
331
E3
  5
E3
331
E4
  5
E4
331
E5
  5
E5
331
E6
  5
E6
331
E7
  5
E7
331
E8
  5
E8
331
E9
  5
E9
331
EA
  5
EA
331
EB
  5
EB
331
EC
  5
EC
331
ED
  5
ED
331
EE
  5
EE
331
EF
  5
EF
331
F0
  5
F0
331
F1
  5
F1
331
F2
  5
F2
331
F3
  5
F3
331
F4
  5
F4
331
F5
  5
F5
331
F6
  5
F6
331
F7
  5
F7
331
F8
  5
F8
331
F9
  5
F9
331
FA
  5
FA
331
FB
  5
FB
331
FC
  5
FC
331
FD
  5
FD
331
FE
  5
FE
331
FF
  5
FF
331
100
  5
100
331
101
  5
101
331
102
  5
102
331
103
  5
103
331
104
  5
104
331
105
  5
105
331
106
  5
106
331
107
  5
107
331
108
  5
108
331
109
  5
109
331
10A
  5
10A
331
10B
  5
10B
331
10C
  5
10C
331
10D
  5
10D
331
10E
  5
10E
331
10F
  5
10F
331
110
  5
110
331
111
  5
111
331
112
  5
112
331
113
  5
113
331
114
  5
114
331
115
  5
115
331
116
  5
116
331
117
  5
117
331
118
  5
118
331
119
  5
119
331
11A
  5
11A
331
11B
  5
11B
331
11C
  5
11C
331
11D
  5
11D
331
11E
  5
11E
331
11F
  5
11F
331
120
  5
120
331
121
  5
121
331
122
  5
122
331
123
  5
123
331
124
  5
124
331
125
  5
125
331
126
  5
126
331
127
  5
127
331
128
  5
128
331
129
  5
129
331
12A
  5
12A
331
12B
  5
12B
331
12C
  5
12C
331
12D
  5
12D
331
12E
  5
12E
331
12F
  5
12F
331
130
  5
130
331
131
  5
131
331
132
  5
132
331
133
  5
133
331
134
  5
134
331
135
  5
135
331
136
  5
136
331
137
  5
137
331
138
  5
138
331
139
  5
139
331
13A
  5
13A
331
13B
  5
13B
331
13C
  5
13C
331
13D
  5
13D
331
13E
  5
13E
331
13F
  5
13F
331
140
  5
140
331
141
  5
141
331
142
  5
142
331
143
  5
143
331
144
  5
144
331
145
  5
145
331
146
  5
146
331
147
  5
147
331
22E
  5
242
331
231
  5
2CC
331
232
  5
2CD
331
233
  5
246
331
24C
  5
455
331
255
  5
5B5
331
2CA
  5
2CE
331
2CB
  5
2CF
331
2CC
  5
2D0
331
2CD
  5
2D1
331
2CE
  5
2D2
331
2CF
  5
2D3
331
2D0
  5
456
331
2D1
  5
2D6
331
2D2
  5
315
331
2D3
  5
316
331
2D4
  5
317
331
2D5
  5
3F1
331
2D6
  5
3F4
331
2D7
  5
2D8
331
2F6
  5
5CC
331
2F7
  5
42C
331
2F9
  5
AB4
331
2FB
  5
AB7
331
2FD
  5
AB8
331
3E7
  5
ABC
331
3E8
  5
ABD
331
3E9
  5
ABE
331
42B
  5
D0A
331
456
  5
11A4
331
4D0
  5
11AF
331
60C
  5
11B0
331
60F
  5
AB1
331
61B
  5
11B4
331
61D
  5
11B5
331
61E
  5
11B6
331
718
  5
AC0
331
725
  5
ACD
331
726
  5
BCC
331
727
  5
BCD
331
728
  5
BD0
331
729
  5
BE0
331
72A
  5
CFB
331
72B
  5
CFC
331
72C
  5
CFD
331
72D
  5
CFE
331
72E
  5
D03
331
72F
  5
D04
331
730
  5
D05
331
731
  5
D06
331
732
  5
D07
331
733
  5
D09
331
819
  5
11BB
331
81A
  5
11BC
331
81C
  5
11C2
331
81D
  5
11EF
331
81E
  5
11C1
331
81F
  5
11F0
331
820
  5
11F1
331
82B
  5
23D
331
B62
  5
1224
331
B63
  5
1226
331
B64
  5
1227
331
B65
  5
1228
331
B66
  5
1229
331
B68
  5
122B
331
B69
  5
122C
331
B6C
  5
122D
331
B6E
  5
122E
331
B6F
  5
122F
331
EB9
  5
1206
331
EBA
  5
1230
331
EBB
  5
1231
331
EBC
  5
1205
331
EBE
  5
1232
331
EBF
  5
1233
331
EC0
  5
1234
331
EC1
  5
1235
331
EC2
  5
1236
331
EC3
  5
AB3
331
EC4
  5
AB2
331
EC5
  5
1212
331
EC8
  5
1237
331
EC9
  5
1238
331
ECB
  5
123A
331
F90
  5
1312
331
F91
  5
1313
331
F93
  5
1316
331
F95
  5
1319
331
F96
  5
1318
331
F97
  5
131A
331
F98
  5
131B
331
F9E
  5
133D
331
F9F
  5
1360
331
FA0
  5
1365
331
FA1
  5
1366
331
FA2
  5
1383
331
FA9
  5
1384
331
FAA
  5
1387
331
FAB
  5
138A
331
FAC
  5
138B
331
FB4
  5
138F
331
FB5
  5
1390
331
FBF
  5
1394
331
FC0
  5
1395
331
FC1
  5
1397
331
FC2
  5
1211
331
FC4
  5
1398
331
101A
  5
1399
331
101B
  5
1363
331
1041
  5
AC3
331
1093
  5
13CB
331
11EF
  5
11F2
331
11F0
  5
13D7
331
11F1
  5
11F3
331
11F2
  5
AC4
331
11F3
  5
AC5
331
11F4
  5
AC6
331
11F5
  5
AC7
331
11F6
  5
AC8
331
11F7
  5
AC9
331
11F8
  5
ACA
331
11F9
  5
ACB
331
11FA
  5
ACC
331
11FD
  5
13D8
331
1205
  5
1386
331
1206
  5
13D9
331
121B
  5
13DA
331
121C
  5
13E5
331
121F
  5
13E6
331
1220
  5
13E8
331
1221
  5
13EA
331
1224
  5
13EB
331
1225
  5
13ED
331
1226
  5
13EF
331
1227
  5
13F0
331
1228
  5
13F1
331
1229
  5
13F2
331
122A
  5
13F3
331
122B
  5
13F4
331
122C
  5
1400
331
122D
  5
1401
331
122E
  5
1402
331
122F
  5
1403
331
1230
  5
1404
331
1231
  5
1406
331
1233
  5
1408
331
1234
  5
1409
331
1235
  5
140A
331
1236
  5
140B
331
1237
  5
1433
331
1238
  5
1435
331
1239
  5
1449
331
123A
  5
144B
331
123B
  5
144C
331
123C
  5
144E
331
1365
  5
13E2
331
1366
  5
13E1
331
1369
  5
13E7
331
136A
  5
13EC
331
136B
  5
13E9
331
136C
  5
13EE
331
136D
  5
13DD
331
136E
  5
13DE
331
136F
  5
13DF
331
1370
  5
14B5
331
1371
  5
14B6
331
1372
  5
14B7
331
1374
  5
14B9
331
1375
  5
14C7
331
1377
  5
15D0
331
1379
  5
1744
331
137B
  5
1777
331
137C
  5
14B8
331
137D
  5
1778
331
137E
  5
17B1
331
137F
  5
1A5A
331
13D6
  5
ABF
331
1413
  5
11A6
331
1433
  5
1B5A
331
144D
  5
1C54
331
144E
  5
1C57
331
1471
  5
1C8C
331
1493
  5
1CA5
331
14AF
  5
144F
331
14B0
  5
1471
331
14B1
  5
1493
331
14B2
  5
149D
331
14B3
  5
14A0
331
14B4
  5
14AD
331
14B5
  5
14AE
331
14B6
  5
14AF
331
14B7
  5
14B0
331
14B8
  5
14B1
331
14B9
  5
14B2
331
14BA
  5
14B3
331
14BB
  5
14B4
331
1775
  5
1D54
331
1779
  5
1D5A
331
1C64
  5
1D6E
331
1C65
  5
1D77
331
1C67
  5
1D9F
331
1C68
  5
1E10
331
1C69
  5
1E30
331
1C6A
  5
203E
331
1C6D
  5
2C28
331
1C6E
  5
2C2C
331
1C71
  5
2C2F
331
1C72
  5
2C30
331
1C75
  5
2C34
331
1C76
  5
2C35
331
1C79
  5
2C36
331
1C7A
  5
2C37
331
1C7D
  5
2C72
331
1C7E
  5
2C73
331
1C81
  5
2C74
331
1C82
  5
2C77
331
1C85
  5
2C78
331
1C86
  5
2C79
331
1C89
  5
2DE0
331
1C8A
  5
2DF0
331
1C8C
  5
5A5
331
1D54
  5
1C86
331
1D5A
  5
1C8A
331
1D6E
  5
1C89
331
1D77
  5
5A4
331
1E10
  5
5A3
331
1E30
  5
5A2
331
2CFE
  5
2DF3
331
2D01
  5
2DF5
331
2DA7
  5
2DFC
331
2DA8
  5
2DFE
331
2E63
  5
2E85
331
2E64
  5
2E95
331
2E65
  5
2EAE
331
2E66
  5
2EEC
331
2E67
  5
2EED
331
2E68
  5
2EF1
331
30BB
  5
30C2
331
30BC
  5
30C3
331
30BD
  5
30C5
331
30BE
  5
30C6
331
30C0
  5
30C8
331
30C1
  5
30C9
331
30C2
  5
30CA
331
30C5
  5
30CD
331
30C7
  5
30CF
331
30C9
  5
30D1
331
30CD
  5
30D4
331
30CE
  5
30D5
331
30CF
  5
30D6
331
30D0
  5
30D7
331
30D1
  5
30D8
331
30D2
  5
30D9
331
30D3
  5
30DA
331
30D5
  5
30DD
331
30D6
  5
30DE
331
30D8
  5
30E0
331
30DC
  5
30E3
331
30DD
  5
30E4
331
30DE
  5
30E5
331
30E1
  5
30E8
331
30E5
  5
30EC
331
30EA
  5
30F2
331
30EB
  5
30F3
331
30EC
  5
30F5
331
30ED
  5
30F6
331
30EE
  5
310A
331
30EF
  5
310B
331
30F0
  5
310D
331
30F1
  5
310E
331
30F2
  5
310F
331
30F3
  5
3110
331
30F4
  5
3111
331
30F6
  5
3113
331
310E
  5
3118
331
310F
  5
3119
331
3110
  5
311A
331
3111
  5
311B
331
3112
  5
311C
331
3113
  5
311D
331
3114
  5
311E
331
3115
  5
311F
331
3116
  5
3120
331
3117
  5
3121
331
3118
  5
3122
331
3119
  5
3123
331
311A
  5
3124
331
311B
  5
3125
331
3120
  5
312A
331
3121
  5
312B
331
3122
  5
312C
331
3123
  5
312D
331
3124
  5
312E
331
3125
  5
312F
331
3126
  5
313A
331
3127
  5
313B
331
3129
  5
313D
331
312A
  5
313F
331
312B
  5
3140
331
312C
  5
3141
331
312D
  5
3142
331
312F
  5
3149
331
313A
  5
314B
331
3148
  5
3150
331
3149
  5
1B5B
331
3150
  5
1405
331
31AC
  5
31AC
331
32A2
  5
32D7
331
32A3
  5
32D8
331
3308
  5
3308
331
3309
  5
3309
331
330A
  5
330A
331
330B
  5
330B
  0
LAYOUT
  5
21A
102
{ACAD_REACTORS
330
217
102
}
102
{ACAD_XDICTIONARY
360
3B8A
102
}
330
217
100
AcDbPlotSettings
  1

  2
none_device
  4
Letter_(8.50_x_11.00_Inches)
  6

 40
6.349999904632568
 41
6.349999904632568
 42
6.350006103515625
 43
6.350006103515625
 44
215.8999938964844
 45
279.3999938964844
 46
0.0
 47
0.0
 48
0.0
 49
0.0
140
0.0
141
0.0
142
1.0
143
1.0
 70
   688
 72
     0
 73
     1
 74
     5
  7
monochrome.ctb
 75
    16
 76
     0
 77
     2
 78
   300
147
1.0
148
0.0
149
0.0
100
AcDbLayout
  1
Layout1
 70
     0
 71
     1
 10
-0.2500002402958907
 20
-0.2499999962453767
 11
10.74999951940822
 21
8.249999763458732
 12
0.0
 22
0.0
 32
0.0
 14
1.049999952316284
 24
0.7999999523162842
 34
0.0
 15
9.449999570846556
 25
7.199999570846557
 35
0.0
146
0.0
 13
0.0
 23
0.0
 33
0.0
 16
1.0
 26
0.0
 36
0.0
 17
0.0
 27
1.0
 37
0.0
 76
     0
330
16
331
1B1
1001
ACAD_PSEXT
1000
None
1000
None
1000
Not applicable
1000
The layout will not be plotted unless a new plotter configuration name is selected.
1070
     0
  0
LAYOUT
  5
219
102
{ACAD_REACTORS
330
217
102
}
330
217
100
AcDbPlotSettings
  1

  2
HP DesignJet 430 (E_A0) by HP.pc3
  4
User618
  6

 40
0.0
 41
0.0
 42
0.0
 43
0.0
 44
210.0
 45
297.0
 46
67.80879840752425
 47
88.27405189824697
 48
284.4401925336751
 49
56.67394942989995
140
404.8920887371812
141
131.0563526148514
142
1.0
143
1.0
 70
 11956
 72
     1
 73
     1
 74
     4
  7
monochrome.ctb
 75
    16
 76
     0
 77
     2
 78
   300
147
1.0
148
-284.4401925336751
149
-56.67394942989995
100
AcDbLayout
  1
Model
 70
     1
 71
     0
 10
5.736745696330154
 20
15.8559998628491
 11
543.0567456963304
 21
411.7759998628491
 12
0.0
 22
0.0
 32
0.0
 14
5.736745696330154
 24
15.85599986284902
 34
0.0
 15
543.0567456963304
 25
411.7759998628491
 35
0.0
146
0.0
 13
0.0
 23
0.0
 33
0.0
 16
1.0
 26
0.0
 36
0.0
 17
0.0
 27
1.0
 37
0.0
 76
     0
330
19
331
3547
1001
ACAD_PSEXT
1000
HP DesignJet 430 (E_A0) by HP.pc3
1000
HP DesignJet 430 (E/A0) by HP
1000
LPT1:
1000

1070
     0
  0
MATERIAL
  5
3584
102
{ACAD_REACTORS
330
220
102
}
330
220
100
AcDbMaterial
  1
ByBlock
  0
MATERIAL
  5
3583
102
{ACAD_REACTORS
330
220
102
}
330
220
100
AcDbMaterial
  1
ByLayer
  0
MATERIAL
  5
3585
102
{ACAD_REACTORS
330
220
102
}
330
220
100
AcDbMaterial
  1
Global
  0
MLEADERSTYLE
  5
3587
102
{ACAD_REACTORS
330
3586
102
}
330
3586
100
AcDbMLeaderStyle
170
     2
171
     1
172
     0
 90
        2
 40
0.0
 41
0.0
173
     1
 91
-1056964608
340
13
 92
       -2
290
     1
 42
0.09
291
     1
 43
0.36
  3
Standard
341
0
 44
0.18
300

342
10
174
     1
178
     6
175
     1
176
     0
 93
-1056964608
 45
0.18
292
     0
297
     0
 46
0.18
343
0
 94
-1056964608
 47
1.0
 49
1.0
140
1.0
293
     1
141
0.0
294
     1
177
     0
142
1.0
295
     0
296
     0
143
0.125
1001
ACAD_MLEADERVER
1070
     2
  0
MLINESTYLE
  5
12
102
{ACAD_REACTORS
330
E
102
}
330
E
100
AcDbMlineStyle
  2
STANDARD
 70
     0
  3

 62
     0
 51
90.0
 52
90.0
 71
     2
 49
0.5
 62
   256
  6
BYLAYER
 49
-0.5
 62
   256
  6
BYLAYER
  0
ACDBPLACEHOLDER
  5
216
102
{ACAD_REACTORS
330
215
102
}
330
215
  0
SCALE
  5
3562
102
{ACAD_REACTORS
330
3561
102
}
330
3561
100
AcDbScale
 70
     0
300
1:1
140
1.0
141
1.0
290
     1
  0
SCALE
  5
3563
102
{ACAD_REACTORS
330
3561
102
}
330
3561
100
AcDbScale
 70
     0
300
1:2
140
1.0
141
2.0
290
     0
  0
SCALE
  5
3564
102
{ACAD_REACTORS
330
3561
102
}
330
3561
100
AcDbScale
 70
     0
300
1:4
140
1.0
141
4.0
290
     0
  0
SCALE
  5
3565
102
{ACAD_REACTORS
330
3561
102
}
330
3561
100
AcDbScale
 70
     0
300
1:5
140
1.0
141
5.0
290
     0
  0
SCALE
  5
3566
102
{ACAD_REACTORS
330
3561
102
}
330
3561
100
AcDbScale
 70
     0
300
1:8
140
1.0
141
8.0
290
     0
  0
SCALE
  5
3567
102
{ACAD_REACTORS
330
3561
102
}
330
3561
100
AcDbScale
 70
     0
300
1:10
140
1.0
141
10.0
290
     0
  0
SCALE
  5
3568
102
{ACAD_REACTORS
330
3561
102
}
330
3561
100
AcDbScale
 70
     0
300
1:16
140
1.0
141
16.0
290
     0
  0
SCALE
  5
3569
102
{ACAD_REACTORS
330
3561
102
}
330
3561
100
AcDbScale
 70
     0
300
1:20
140
1.0
141
20.0
290
     0
  0
SCALE
  5
356A
102
{ACAD_REACTORS
330
3561
102
}
330
3561
100
AcDbScale
 70
     0
300
1:30
140
1.0
141
30.0
290
     0
  0
SCALE
  5
356B
102
{ACAD_REACTORS
330
3561
102
}
330
3561
100
AcDbScale
 70
     0
300
1:40
140
1.0
141
40.0
290
     0
  0
SCALE
  5
356C
102
{ACAD_REACTORS
330
3561
102
}
330
3561
100
AcDbScale
 70
     0
300
1:50
140
1.0
141
50.0
290
     0
  0
SCALE
  5
356D
102
{ACAD_REACTORS
330
3561
102
}
330
3561
100
AcDbScale
 70
     0
300
1:100
140
1.0
141
100.0
290
     0
  0
SCALE
  5
356E
102
{ACAD_REACTORS
330
3561
102
}
330
3561
100
AcDbScale
 70
     0
300
2:1
140
2.0
141
1.0
290
     0
  0
SCALE
  5
356F
102
{ACAD_REACTORS
330
3561
102
}
330
3561
100
AcDbScale
 70
     0
300
4:1
140
4.0
141
1.0
290
     0
  0
SCALE
  5
3570
102
{ACAD_REACTORS
330
3561
102
}
330
3561
100
AcDbScale
 70
     0
300
8:1
140
8.0
141
1.0
290
     0
  0
SCALE
  5
3571
102
{ACAD_REACTORS
330
3561
102
}
330
3561
100
AcDbScale
 70
     0
300
10:1
140
10.0
141
1.0
290
     0
  0
SCALE
  5
3572
102
{ACAD_REACTORS
330
3561
102
}
330
3561
100
AcDbScale
 70
     0
300
100:1
140
100.0
141
1.0
290
     0
  0
SCALE
  5
3573
102
{ACAD_REACTORS
330
3561
102
}
330
3561
100
AcDbScale
 70
     0
300
1/128" = 1'-0"
140
0.0078125
141
12.0
290
     0
  0
SCALE
  5
3574
102
{ACAD_REACTORS
330
3561
102
}
330
3561
100
AcDbScale
 70
     0
300
1/64" = 1'-0"
140
0.015625
141
12.0
290
     0
  0
SCALE
  5
3575
102
{ACAD_REACTORS
330
3561
102
}
330
3561
100
AcDbScale
 70
     0
300
1/32" = 1'-0"
140
0.03125
141
12.0
290
     0
  0
SCALE
  5
3576
102
{ACAD_REACTORS
330
3561
102
}
330
3561
100
AcDbScale
 70
     0
300
1/16" = 1'-0"
140
0.0625
141
12.0
290
     0
  0
SCALE
  5
3577
102
{ACAD_REACTORS
330
3561
102
}
330
3561
100
AcDbScale
 70
     0
300
3/32" = 1'-0"
140
0.09375
141
12.0
290
     0
  0
SCALE
  5
3578
102
{ACAD_REACTORS
330
3561
102
}
330
3561
100
AcDbScale
 70
     0
300
1/8" = 1'-0"
140
0.125
141
12.0
290
     0
  0
SCALE
  5
3579
102
{ACAD_REACTORS
330
3561
102
}
330
3561
100
AcDbScale
 70
     0
300
3/16" = 1'-0"
140
0.1875
141
12.0
290
     0
  0
SCALE
  5
357A
102
{ACAD_REACTORS
330
3561
102
}
330
3561
100
AcDbScale
 70
     0
300
1/4" = 1'-0"
140
0.25
141
12.0
290
     0
  0
SCALE
  5
357B
102
{ACAD_REACTORS
330
3561
102
}
330
3561
100
AcDbScale
 70
     0
300
3/8" = 1'-0"
140
0.375
141
12.0
290
     0
  0
SCALE
  5
357C
102
{ACAD_REACTORS
330
3561
102
}
330
3561
100
AcDbScale
 70
     0
300
1/2" = 1'-0"
140
0.5
141
12.0
290
     0
  0
SCALE
  5
357D
102
{ACAD_REACTORS
330
3561
102
}
330
3561
100
AcDbScale
 70
     0
300
3/4" = 1'-0"
140
0.75
141
12.0
290
     0
  0
SCALE
  5
357E
102
{ACAD_REACTORS
330
3561
102
}
330
3561
100
AcDbScale
 70
     0
300
1" = 1'-0"
140
1.0
141
12.0
290
     0
  0
SCALE
  5
357F
102
{ACAD_REACTORS
330
3561
102
}
330
3561
100
AcDbScale
 70
     0
300
1-1/2" = 1'-0"
140
1.5
141
12.0
290
     0
  0
SCALE
  5
3580
102
{ACAD_REACTORS
330
3561
102
}
330
3561
100
AcDbScale
 70
     0
300
3" = 1'-0"
140
3.0
141
12.0
290
     0
  0
SCALE
  5
3581
102
{ACAD_REACTORS
330
3561
102
}
330
3561
100
AcDbScale
 70
     0
300
6" = 1'-0"
140
6.0
141
12.0
290
     0
  0
SCALE
  5
3582
102
{ACAD_REACTORS
330
3561
102
}
330
3561
100
AcDbScale
 70
     0
300
1'-0" = 1'-0"
140
12.0
141
12.0
290
     0
  0
TABLESTYLE
  5
223
102
{ACAD_REACTORS
330
222
102
}
102
{ACAD_XDICTIONARY
360
3B8C
102
}
330
222
100
AcDbTableStyle
  3
Standard
 70
     0
 71
     0
 40
0.06
 41
0.06
280
     0
281
     0
  7
STANDARD
140
0.18
170
     2
 62
     0
 63
   257
283
     0
274
    -2
284
     1
 64
     0
275
    -2
285
     1
 65
     0
276
    -2
286
     1
 66
     0
277
    -2
287
     1
 67
     0
278
    -2
288
     1
 68
     0
279
    -2
289
     1
 69
     0
  7
STANDARD
140
0.25
170
     5
 62
     0
 63
   257
283
     0
274
    -2
284
     1
 64
     0
275
    -2
285
     1
 65
     0
276
    -2
286
     1
 66
     0
277
    -2
287
     1
 67
     0
278
    -2
288
     1
 68
     0
279
    -2
289
     1
 69
     0
  7
STANDARD
140
0.18
170
     5
 62
     0
 63
   257
283
     0
274
    -2
284
     1
 64
     0
275
    -2
285
     1
 65
     0
276
    -2
286
     1
 66
     0
277
    -2
287
     1
 67
     0
278
    -2
288
     1
 68
     0
279
    -2
289
     1
 69
     0
  0
DICTIONARYVAR
  5
35B0
102
{ACAD_REACTORS
330
211
102
}
330
211
100
DictionaryVariables
280
     0
  1
1:1
  0
DICTIONARYVAR
  5
35C1
102
{ACAD_REACTORS
330
211
102
}
330
211
100
DictionaryVariables
280
     0
  1
Standard
  0
DICTIONARYVAR
  5
228
102
{ACAD_REACTORS
330
211
102
}
330
211
100
DictionaryVariables
280
     0
  1
Standard
  0
DICTIONARYVAR
  5
212
102
{ACAD_REACTORS
330
211
102
}
330
211
100
DictionaryVariables
280
     0
  1
1
  0
DICTIONARYVAR
  5
35C2
102
{ACAD_REACTORS
330
211
102
}
330
211
100
DictionaryVariables
280
     0
  1
0
  0
DICTIONARYVAR
  5
35C3
102
{ACAD_REACTORS
330
211
102
}
330
211
100
DictionaryVariables
280
     0
  1
0
  0
DICTIONARY
  5
3B91
102
{ACAD_REACTORS
330
3B90
102
}
330
3B90
100
AcDbDictionary
281
     1
  0
DICTIONARY
  5
3B92
102
{ACAD_REACTORS
330
3B90
102
}
330
3B90
100
AcDbDictionary
281
     1
  3
8796079631808
350
3B93
  3
8796079631824
350
3B94
  3
8796079631840
350
3B95
  3
8796079631856
350
3B96
  3
8796079631872
350
3B97
  3
8796079631888
350
3B98
  0
XRECORD
  5
3A6B
102
{ACAD_REACTORS
330
E96
102
}
330
E96
100
AcDbXrecord
280
     1
 91
     1023
301

290
     0
302
OUT57
330
F
 90
        8
 62
     7
370
    -3
331
15
  1
Color_7
330
2B
 90
        8
 62
     7
370
    -3
331
15
  1
Color_7
330
2C
 90
        8
 62
     2
370
    -3
331
15
  1
Color_2
330
2D
 90
        8
 62
     3
370
    -3
331
15
  1
Color_3
330
2E
 90
        8
 62
     6
370
    -3
331
21
  1
Color_6
330
2F
 90
        8
 62
     1
370
    -3
331
23
  1
Color_1
330
30
 90
        8
 62
     6
370
    -3
331
15
  1
Color_6
330
31
 90
        8
 62
     1
370
    -3
331
15
  1
Color_1
330
32
 90
        8
 62
     2
370
    -3
331
15
  1
Color_2
330
33
 90
        8
 62
   255
370
    -3
331
15
  1
Color_255
330
34
 90
        8
 62
     5
370
    -3
331
21
  1
Color_5
330
35
 90
        8
 62
     5
370
    -3
331
15
  1
Color_5
330
36
 90
        8
 62
     3
370
    -3
331
15
  1
Color_3
330
37
 90
        8
 62
     5
370
    -3
331
15
  1
Color_5
330
38
 90
        8
 62
     1
370
    -3
331
15
  1
Color_1
330
39
 90
        8
 62
     1
370
    -3
331
15
  1
Color_1
330
3A
 90
        8
 62
     3
370
    -3
331
15
  1
Color_3
330
3B
 90
        8
 62
     3
370
    -3
331
15
  1
Color_3
330
3C
 90
        8
 62
    15
370
    -3
331
15
  1
Color_15
330
170
 90
        0
 62
     7
370
    -3
331
15
  1
Color_7
  0
XRECORD
  5
3A79
102
{ACAD_REACTORS
330
E96
102
}
330
E96
100
AcDbXrecord
280
     1
 91
     1023
301

290
     0
302
DIM34
330
F
 90
        8
 62
     7
370
    -3
331
15
  1
Color_7
330
2B
 90
        8
 62
     7
370
    -3
331
15
  1
Color_7
330
2C
 90
        8
 62
     2
370
    -3
331
15
  1
Color_2
330
2D
 90
        8
 62
     3
370
    -3
331
15
  1
Color_3
330
2E
 90
        8
 62
     6
370
    -3
331
21
  1
Color_6
330
2F
 90
        8
 62
     1
370
    -3
331
23
  1
Color_1
330
30
 90
        8
 62
     6
370
    -3
331
15
  1
Color_6
330
31
 90
        8
 62
     1
370
    -3
331
15
  1
Color_1
330
32
 90
        8
 62
     2
370
    -3
331
15
  1
Color_2
330
33
 90
        8
 62
   255
370
    -3
331
15
  1
Color_255
330
34
 90
        8
 62
     5
370
    -3
331
21
  1
Color_5
330
35
 90
        8
 62
     5
370
    -3
331
15
  1
Color_5
330
36
 90
        8
 62
     3
370
    -3
331
15
  1
Color_3
330
37
 90
        8
 62
     5
370
    -3
331
15
  1
Color_5
330
38
 90
        8
 62
     1
370
    -3
331
15
  1
Color_1
330
39
 90
        8
 62
     1
370
    -3
331
15
  1
Color_1
330
3A
 90
        8
 62
     3
370
    -3
331
15
  1
Color_3
330
3B
 90
        8
 62
     3
370
    -3
331
15
  1
Color_3
330
3C
 90
        8
 62
    15
370
    -3
331
15
  1
Color_15
330
170
 90
        0
 62
     7
370
    -3
331
15
  1
Color_7
  0
XRECORD
  5
3A7B
102
{ACAD_REACTORS
330
E96
102
}
330
E96
100
AcDbXrecord
280
     1
 91
     1023
301

290
     0
302
CTR34
330
F
 90
        8
 62
     7
370
    -3
331
15
  1
Color_7
330
2B
 90
        8
 62
     7
370
    -3
331
15
  1
Color_7
330
2C
 90
        8
 62
     2
370
    -3
331
15
  1
Color_2
330
2D
 90
        8
 62
     3
370
    -3
331
15
  1
Color_3
330
2E
 90
        8
 62
     6
370
    -3
331
21
  1
Color_6
330
2F
 90
        8
 62
     1
370
    -3
331
23
  1
Color_1
330
30
 90
        8
 62
     6
370
    -3
331
15
  1
Color_6
330
31
 90
        8
 62
     1
370
    -3
331
15
  1
Color_1
330
32
 90
        8
 62
     2
370
    -3
331
15
  1
Color_2
330
33
 90
        8
 62
   255
370
    -3
331
15
  1
Color_255
330
34
 90
        8
 62
     5
370
    -3
331
21
  1
Color_5
330
35
 90
        8
 62
     5
370
    -3
331
15
  1
Color_5
330
36
 90
        8
 62
     3
370
    -3
331
15
  1
Color_3
330
37
 90
        8
 62
     5
370
    -3
331
15
  1
Color_5
330
38
 90
        8
 62
     1
370
    -3
331
15
  1
Color_1
330
39
 90
        8
 62
     1
370
    -3
331
15
  1
Color_1
330
3A
 90
        8
 62
     3
370
    -3
331
15
  1
Color_3
330
3B
 90
        8
 62
     3
370
    -3
331
15
  1
Color_3
330
3C
 90
        8
 62
    15
370
    -3
331
15
  1
Color_15
330
170
 90
        0
 62
     7
370
    -3
331
15
  1
Color_7
  0
XRECORD
  5
3AD7
102
{ACAD_REACTORS
330
E96
102
}
330
E96
100
AcDbXrecord
280
     1
 91
     1023
301

290
     0
302
DIM34
330
F
 90
        8
 62
     7
370
    -3
331
15
  1
Color_7
330
2B
 90
        8
 62
     7
370
    -3
331
15
  1
Color_7
330
2C
 90
        8
 62
     2
370
    -3
331
15
  1
Color_2
330
2D
 90
        8
 62
     3
370
    -3
331
15
  1
Color_3
330
2E
 90
        8
 62
     6
370
    -3
331
21
  1
Color_6
330
2F
 90
        8
 62
     1
370
    -3
331
23
  1
Color_1
330
30
 90
        8
 62
     6
370
    -3
331
15
  1
Color_6
330
31
 90
        8
 62
     1
370
    -3
331
15
  1
Color_1
330
32
 90
        8
 62
     2
370
    -3
331
15
  1
Color_2
330
33
 90
        8
 62
   255
370
    -3
331
15
  1
Color_255
330
34
 90
        8
 62
     5
370
    -3
331
21
  1
Color_5
330
35
 90
        8
 62
     5
370
    -3
331
15
  1
Color_5
330
36
 90
        8
 62
     3
370
    -3
331
15
  1
Color_3
330
37
 90
        8
 62
     5
370
    -3
331
15
  1
Color_5
330
38
 90
        8
 62
     1
370
    -3
331
15
  1
Color_1
330
39
 90
        8
 62
     1
370
    -3
331
15
  1
Color_1
330
3A
 90
        8
 62
     3
370
    -3
331
15
  1
Color_3
330
3B
 90
        8
 62
     3
370
    -3
331
15
  1
Color_3
330
3C
 90
        8
 62
    15
370
    -3
331
15
  1
Color_15
330
170
 90
        0
 62
     7
370
    -3
331
15
  1
Color_7
  0
XRECORD
  5
3B42
102
{ACAD_REACTORS
330
E96
102
}
330
E96
100
AcDbXrecord
280
     1
 91
     1023
301

290
     0
302
CTR34
330
F
 90
        8
 62
     7
370
    -3
331
15
  1
Color_7
330
2B
 90
        8
 62
     7
370
    -3
331
15
  1
Color_7
330
2C
 90
        8
 62
     2
370
    -3
331
15
  1
Color_2
330
2D
 90
        8
 62
     3
370
    -3
331
15
  1
Color_3
330
2E
 90
        8
 62
     6
370
    -3
331
21
  1
Color_6
330
2F
 90
        8
 62
     1
370
    -3
331
23
  1
Color_1
330
30
 90
        8
 62
     6
370
    -3
331
15
  1
Color_6
330
31
 90
        8
 62
     1
370
    -3
331
15
  1
Color_1
330
32
 90
        8
 62
     2
370
    -3
331
15
  1
Color_2
330
33
 90
        8
 62
   255
370
    -3
331
15
  1
Color_255
330
34
 90
        8
 62
     5
370
    -3
331
21
  1
Color_5
330
35
 90
        8
 62
     5
370
    -3
331
15
  1
Color_5
330
36
 90
        8
 62
     3
370
    -3
331
15
  1
Color_3
330
37
 90
        8
 62
     5
370
    -3
331
15
  1
Color_5
330
38
 90
        8
 62
     1
370
    -3
331
15
  1
Color_1
330
39
 90
        8
 62
     1
370
    -3
331
15
  1
Color_1
330
3A
 90
        8
 62
     3
370
    -3
331
15
  1
Color_3
330
3B
 90
        8
 62
     3
370
    -3
331
15
  1
Color_3
330
3C
 90
        8
 62
    15
370
    -3
331
15
  1
Color_15
330
170
 90
        0
 62
     7
370
    -3
331
15
  1
Color_7
  0
XRECORD
  5
3B6D
102
{ACAD_REACTORS
330
E96
102
}
330
E96
100
AcDbXrecord
280
     1
 91
     1023
301

290
     0
302
DIM34
330
F
 90
        8
 62
     7
370
    -3
331
15
  1
Color_7
330
2B
 90
        8
 62
     7
370
    -3
331
15
  1
Color_7
330
2C
 90
        8
 62
     2
370
    -3
331
15
  1
Color_2
330
2D
 90
        8
 62
     3
370
    -3
331
15
  1
Color_3
330
2E
 90
        8
 62
     6
370
    -3
331
21
  1
Color_6
330
2F
 90
        8
 62
     1
370
    -3
331
23
  1
Color_1
330
30
 90
        8
 62
     6
370
    -3
331
15
  1
Color_6
330
31
 90
        8
 62
     1
370
    -3
331
15
  1
Color_1
330
32
 90
        8
 62
     2
370
    -3
331
15
  1
Color_2
330
33
 90
        8
 62
   255
370
    -3
331
15
  1
Color_255
330
34
 90
        8
 62
     5
370
    -3
331
21
  1
Color_5
330
35
 90
        8
 62
     5
370
    -3
331
15
  1
Color_5
330
36
 90
        8
 62
     3
370
    -3
331
15
  1
Color_3
330
37
 90
        8
 62
     5
370
    -3
331
15
  1
Color_5
330
38
 90
        8
 62
     1
370
    -3
331
15
  1
Color_1
330
39
 90
        8
 62
     1
370
    -3
331
15
  1
Color_1
330
3A
 90
        8
 62
     3
370
    -3
331
15
  1
Color_3
330
3B
 90
        8
 62
     3
370
    -3
331
15
  1
Color_3
330
3C
 90
        8
 62
    15
370
    -3
331
15
  1
Color_15
330
170
 90
        0
 62
     7
370
    -3
331
15
  1
Color_7
  0
XRECORD
  5
3943
102
{ACAD_REACTORS
330
E96
102
}
330
E96
100
AcDbXrecord
280
     1
 91
     1023
301

290
     0
302
DIM34
330
F
 90
        8
 62
     7
370
    -3
331
15
  1
Color_7
330
2B
 90
        8
 62
     7
370
    -3
331
15
  1
Color_7
330
2C
 90
        8
 62
     2
370
    -3
331
15
  1
Color_2
330
2D
 90
        8
 62
     3
370
    -3
331
15
  1
Color_3
330
2E
 90
        8
 62
     6
370
    -3
331
21
  1
Color_6
330
2F
 90
        8
 62
     1
370
    -3
331
23
  1
Color_1
330
30
 90
        8
 62
     6
370
    -3
331
15
  1
Color_6
330
31
 90
        8
 62
     1
370
    -3
331
15
  1
Color_1
330
32
 90
        8
 62
     2
370
    -3
331
15
  1
Color_2
330
33
 90
        8
 62
   255
370
    -3
331
15
  1
Color_255
330
34
 90
        8
 62
     5
370
    -3
331
21
  1
Color_5
330
35
 90
        8
 62
     5
370
    -3
331
15
  1
Color_5
330
36
 90
        8
 62
     3
370
    -3
331
15
  1
Color_3
330
37
 90
        8
 62
     5
370
    -3
331
15
  1
Color_5
330
38
 90
        8
 62
     1
370
    -3
331
15
  1
Color_1
330
39
 90
        8
 62
     1
370
    -3
331
15
  1
Color_1
330
3A
 90
        8
 62
     3
370
    -3
331
15
  1
Color_3
330
3B
 90
        8
 62
     3
370
    -3
331
15
  1
Color_3
330
3C
 90
        8
 62
    15
370
    -3
331
15
  1
Color_15
330
170
 90
        0
 62
     7
370
    -3
331
15
  1
Color_7
  0
DICTIONARY
  5
3B8A
330
21A
100
AcDbDictionary
280
     1
281
     1
  3
ADSK_XREC_LAYOUTTHUMBNAIL
360
3B8B
  0
DICTIONARY
  5
3B8C
330
223
100
AcDbDictionary
280
     1
281
     1
  3
ACAD_ROUNDTRIP_2008_TABLESTYLE_CELLSTYLEMAP
360
3B8E
  3
ACAD_XREC_ROUNDTRIP
360
3B8D
  0
XRECORD
  5
3B93
102
{ACAD_REACTORS
330
3B92
102
}
330
3B92
100
AcDbXrecord
280
     1
  1
AcDb_Thumbnail_Schema
102
{ATTRRECORD
341
3B95
  2
AcDbDs::TreatedAsObjectData
280
     1
291
     1
102
ATTRRECORD}
102
{ATTRRECORD
341
3B96
  2
AcDbDs::Legacy
280
     1
291
     1
102
ATTRRECORD}
  2
AcDbDs::ID
280
    10
 91
        8
102
{ATTRRECORD
341
3B97
  2
AcDs:Indexable
280
     1
291
     1
102
ATTRRECORD}
102
{ATTRRECORD
341
3B98
  2
AcDbDs::HandleAttribute
280
     7
282
     1
102
ATTRRECORD}
  2
Thumbnail_Data
280
    15
 91
        0
  0
XRECORD
  5
3B94
102
{ACAD_REACTORS
330
3B92
102
}
330
3B92
100
AcDbXrecord
280
     1
  1
AcDb3DSolid_ASM_Data
102
{ATTRRECORD
341
3B95
  2
AcDbDs::TreatedAsObjectData
280
     1
291
     1
102
ATTRRECORD}
102
{ATTRRECORD
341
3B96
  2
AcDbDs::Legacy
280
     1
291
     1
102
ATTRRECORD}
  2
AcDbDs::ID
280
    10
 91
        8
102
{ATTRRECORD
341
3B97
  2
AcDs:Indexable
280
     1
291
     1
102
ATTRRECORD}
102
{ATTRRECORD
341
3B98
  2
AcDbDs::HandleAttribute
280
     7
282
     1
102
ATTRRECORD}
  2
ASM_Data
280
    15
 91
        0
  0
XRECORD
  5
3B95
102
{ACAD_REACTORS
330
3B92
102
}
330
3B92
100
AcDbXrecord
280
     1
  1
AcDbDs::TreatedAsObjectDataSchema
  2
AcDbDs::TreatedAsObjectData
280
     1
 91
        0
  0
XRECORD
  5
3B96
102
{ACAD_REACTORS
330
3B92
102
}
330
3B92
100
AcDbXrecord
280
     1
  1
AcDbDs::LegacySchema
  2
AcDbDs::Legacy
280
     1
 91
        0
  0
XRECORD
  5
3B97
102
{ACAD_REACTORS
330
3B92
102
}
330
3B92
100
AcDbXrecord
280
     1
  1
AcDbDs::IndexedPropertySchema
  2
AcDs:Indexable
280
     1
 91
        0
  0
XRECORD
  5
3B98
102
{ACAD_REACTORS
330
3B92
102
}
330
3B92
100
AcDbXrecord
280
     1
  1
AcDbDs::HandleAttributeSchema
  2
AcDbDs::HandleAttribute
280
     7
 91
        1
284
     1
  0
XRECORD
  5
3B8B
102
{ACAD_REACTORS
330
3B8A
102
}
330
3B8A
100
AcDbXrecord
280
     1
310
28000000B40000008A00000001000800000000000861000000000000000000000001000000000000FFFFFF0000000000FFFFFF000000000000000000000000000000000000000000000000000000000000000000330000006600000099000000CC000000FF00000000330000333300006633000099330000CC330000FF3300
310
0000660000336600006666000099660000CC660000FF66000000990000339900006699000099990000CC990000FF99000000CC000033CC000066CC000099CC0000CCCC0000FFCC000000FF000033FF000066FF000099FF0000CCFF0000FFFF000000003300330033006600330099003300CC003300FF003300003333003333
310
33006633330099333300CC333300FF33330000663300336633006666330099663300CC663300FF66330000993300339933006699330099993300CC993300FF99330000CC330033CC330066CC330099CC3300CCCC3300FFCC330000FF330033FF330066FF330099FF3300CCFF3300FFFF330000006600330066006600660099
310
006600CC006600FF00660000336600333366006633660099336600CC336600FF33660000666600336666006666660099666600CC666600FF66660000996600339966006699660099996600CC996600FF99660000CC660033CC660066CC660099CC6600CCCC6600FFCC660000FF660033FF660066FF660099FF6600CCFF6600
310
FFFF660000009900330099006600990099009900CC009900FF00990000339900333399006633990099339900CC339900FF33990000669900336699006666990099669900CC669900FF66990000999900339999006699990099999900CC999900FF99990000CC990033CC990066CC990099CC9900CCCC9900FFCC990000FF99
310
0033FF990066FF990099FF9900CCFF9900FFFF99000000CC003300CC006600CC009900CC00CC00CC00FF00CC000033CC003333CC006633CC009933CC00CC33CC00FF33CC000066CC003366CC006666CC009966CC00CC66CC00FF66CC000099CC003399CC006699CC009999CC00CC99CC00FF99CC0000CCCC0033CCCC0066CC
310
CC0099CCCC00CCCCCC00FFCCCC0000FFCC0033FFCC0066FFCC0099FFCC00CCFFCC00FFFFCC000000FF003300FF006600FF009900FF00CC00FF00FF00FF000033FF003333FF006633FF009933FF00CC33FF00FF33FF000066FF003366FF006666FF009966FF00CC66FF00FF66FF000099FF003399FF006699FF009999FF00CC
310
99FF00FF99FF0000CCFF0033CCFF0066CCFF0099CCFF00CCCCFF00FFCCFF0000FFFF0033FFFF0066FFFF0099FFFF00CCFFFF00FFFFFF00000000000D0D0D001A1A1A00282828003535350043434300505050005D5D5D006B6B6B00787878008686860093939300A1A1A100AEAEAE00BBBBBB00C9C9C900D6D6D600E4E4E400
310
F1F1F100FFFFFF0000000000000000000000000000000000000000000000000000000000000000000000000000000000EFE2E2E2E2E2E2E2E2E2E2E2E2E2E2E2E2E2E2E2E2E2E2E2E2E2E2E2E2E2E2E2E2E2E2E2E2E2E2E2E2E2E2E2E2E2E2E2E2E2E2E2E2E2E2E2E2E2E2E2E2E2E2E2E2E2E2E2E2E2E2E2E2E2E2E2E2E2E2
310
E2E2E2E2E2E2E2E2E2E2E2E2E2E2E2E2E2E2E2E2E2E2E2E2E2E2E2E2E2E2E2E2E2E2E2E2E2E2E2E2E2E2E2E2E2E2E2E2E2E2E2E2E2E2E2E2E2E2E2E2E2E2E2E2E2E2E2E2E2E2E2E2E2E2E2E2E2E2E2E2E2E2E2E2E2E2E2E2E2E2E2E2E2E2E2E2E2E2E2E2E2EFE2F5F5F5F5F5F5F5F5F5F5F5F5F5F5F5F5F5F5F5F5F5F5F5F5
310
F5F5F5F5F5F5F5F5F5F5F5F5F5F5F5F5F5F5F5F5F5F5F5F5F5F5F5F5F5F5F5F5F5F5F5F5F5F5F5F5F5F5F5F5F5F5F5F5F5F5F5F5F5F5F5F5F5F5F5F5F5F5F5F5F5F5F5F5F5F5F5F5F5F5F5F5F5F5F5F5F5F5F5F5F5F5F5F5F5F5F5F5F5F5F5F5F5F5F5F5F5F5F5F5F5F5F5F5F5F5F5F5F5F5F5F5F5F5F5F5F5F5F5F5F5F5F5
310
F5F5F5F5F5F5F5F5F5F5F5F5F5F5F5F5F5F5F5F5F5F5F5F5F5E2E2EFE2F5F5F5F5F5F5F5F5F5F5F5F5F5F5F5F5F5F5F5F5F5F5F5F5F5F5F5F5F5F5F5F5F5F5F5F5F5F5F5F5F5F5F5F5F5F5F5F5F5F5F5F5F5F5F5F5F5F5F5F5F5F5F5F5F5F5F5F5F5F5F5F5F5F5F5F5F5F5F5F5F5F5F5F5F5F5F5F5F5F5F5F5F5F5F5F5F5F5
310
F5F5F5F5F5F5F5F5F5F5F5F5F5F5F5F5F5F5F5F5F5F5F5F5F5F5F5F5F5F5F5F5F5F5F5F5F5F5F5F5F5F5F5F5F5F5F5F5F5F5F5F5F5F5F5F5F5F5F5F5F5F5F5F5F5F5F5F5F5F5F5F5F5F5F5F5F5F5E2E2EFE2F5F5F5F5F5F5F5F5F5F5F5F5F5F5F5F5F5F5F5F5F5F5F5F5F5F5F5F5F5F5F5F5F5F5F5F5F5F5F5F5F5F5F5F5F5
310
F5F5F5F5F5F5F5F5F5F5F5F5F5F5F5F5F5F5F5F5F5F5F5F5F5F5F5F5F5F5F5F5F5F5F5F5F5F5F5F5F5F5F5F5F5F5F5F5F5F5F5F5F5F5F5F5F5F5F5F5F5F5F5F5F5F5F5F5F5F5F5F5F5F5F5F5F5F5F5F5F5F5F5F5F5F5F5F5F5F5F5F5F5F5F5F5F5F5F5F5F5F5F5F5F5F5F5F5F5F5F5F5F5F5F5F5F5F5F5F5F5F5F5F5F5F5F5
310
F5F5F5F5E2E2EFE2F5F5F5E2E2E2E2E2E2E2E2F5F5F5F5F5F5F5F5F5E2E2E2E2E2E2E2E2E2E2E2E2E2E2E2F5F5F5F5F5F5F5F5F5E2E2E2E2E2E2E2E2E2E2E2E2E2E2E2E2F5F5F5F5F5F5F5F5E2E2E2E2E2E2E2E2E2E2E2E2E2E2E2E2F5F5F5F5F5F5F5F5E2E2E2E2E2E2E2E2E2E2E2E2E2E2E2E2F5F5F5F5F5F5F5F5E2E2E2
310
E2E2E2E2E2E2E2E2E2E2E2E2E2F5F5F5F5F5F5F5F5F5E2E2E2E2E2E2E2E2E2E2E2E2E2E2E2F5F5F5F5F5F5F5F5F5E2E2E2E2E2E2E2E2F5F5F5E2E2EFE2F5F5F5E2F5F5F5F5F5F5F5F5F5F5F5F5F5F5F5F5F5F5F5F5F5F5F5F5F5F5F5F5F5F5F5F5F5F5F5F5F5F5F5F5F5F5F5F5F5F5F5F5F5F5F5F5F5F5F5F5F5F5F5F5F5F5
310
F5F5F5F5F5F5F5F5F5F5F5F5F5F5F5F5F5F5F5F5F5F5F5F5F5F5F5F5F5F5F5F5F5F5F5F5F5F5F5F5F5F5F5F5F5F5F5F5F5F5F5F5F5F5F5F5F5F5F5F5F5F5F5F5F5F5F5F5F5F5F5F5F5F5F5F5F5F5F5F5F5F5F5F5F5F5F5F5F5F5F5F5F5F5F5F5F5F5F5F5F5F5F5F5F5F5E2F5F5F5E2E2EFE2F5F5F5E2F5F5F5F5F5F5F5F5F5
310
F5F5F5F5F5F5F5F5F5F5F5F5F5F5F5F5F5F5F5F5F5F5F5F5F5F5F5F5F5F5F5F5F5F5F5F5F5F5F5F5F5F5F5F5F5F5F5F5F5F5F5F5F5F5F5F5F5F5F5F5F5F5F5F5F5F5F5F5F5F5F5F5F5F5F5F5F5F5F5F5F5F5F5F5F5F5F5F5F5F5F5F5F5F5F5F5F5F5F5F5F5F5F5F5F5F5F5F5F5F5F5F5F5F5F5F5F5F5F5F5F5F5F5F5F5F5F5
310
F5F5F5F5F5F5F5F5F5F5F5F5F5F5F5F5F5F5F5F5F5F5F5F5F5F5F5F5F5F5F5F5E2F5F5F5E2E2EFE2F5F5F5E2F5F5F5F5F5F5F5F5F5F5F5F5F5F5F5F5F5F5F5F5F5F5F5F5F5F5F5F5F5F5F5F5F5F5F5F5F5F5F5F5F5F5F5F5F5F5F5F5F5F5F5F5F5F5F5F5F5F5F5F5F5F5F5F5F5F5F5F5F5F5F5F5F5F5F5F5F5F5F5F5F5F5F5
310
F5F5F5F5F5F5F5F5F5F5F5F5F5F5F5F5F5F5F5F5F5F5F5F5F5F5F5F5F5F5F5F5F5F5F5F5F5F5F5F5F5F5F5F5F5F5F5F5F5F5F5F5F5F5F5F5F5F5F5F5F5F5F5F5F5F5F5F5F5F5F5F5F5F5F5F5F5F5F5F5F5F5F5F5F5E2F5F5F5E2E2EFE2F5F5F5E2F5F5F5F5F5F5F5F5F5F5F5F5F5F5F5F5F5F5F5F5F5F5F5F5F5F5F5F5F5F5
310
F5F5F5F5F5F5F5F5F5F5F5F5F5F5F5F5F5F5F5F5F5F5F5F5F5F5F5F5F5F5F5F5F5F5F5F5F5F5F5F5F5F5F5F5F5F5F5F5F5F5F5F5F5F5F5F5F5F5F5F5F5F5F5F5F5F5F5F5F5F5F5F5F5F5F5F5F5F5F5F5F5F5F5F5F5F5F5F5F5F5F5F5F5F5F5F5F5F5F5F5F5F5F5F5F5F5F5F5F5F5F5F5F5F5F5F5F5F5F5F5F5F5F5F5F5F5F5
310
F5F5F5F5F5F5F5F5F5F5F5E2F5F5F5E2E2EFE2F5F5F5E2F5F5F5F5F5F5F5F5F5F5F5F5F5F5F5F5F5F5F5F5F5F5F5F5F5F5F5F5F5F5F5F5F5F5F5F5F5F5F5F5F5F5F5F5F5F5F5F5F5F5F5F5F5F5F5F5F5F5F5F5F5F5F5F5F5F5F5F5F5F5F5F5F5F5F5F5F5F5F5F5F5F5F5F5F5F5F5F5F5F5F5F5F5F5F5F5F5F5F5F5F5F5F5F5
310
F5F5F5F5F5F5F5F5F5F5F5F5F5F5F5F5F5F5F5F5F5F5F5F5F5F5F5F5F5F5F5F5F5F5F5F5F5F5F5F5F5F5F5F5F5F5F5F5F5F5F5F5F5F5F5F5F5F5F5F5F5F5F5F5E2F5F5F5E2E2EFE2F5F5F5E2F5F5F5F5F5F5F5F5F5F5F5F5F5F5F5F5F5F5F5F5F5F5F5F5F5F5F5F5F5F5F5F5F5F5F5F5F5F5F5F5F5F5F5F5F5F5F5F5F5F5F5
310
F5F5F5F5F5F5F5F5F5F5F5F5F5F5F5F5F5F5F5F5F5F5F5F5F5F5F5F5F5F5F5F5F5F5F5F5F5F5F5F5F5F5F5F5F5F5F5F5F5F5F5F5F5F5F5F5F5F5F5F5F5F5F5F5F5F5F5F5F5F5F5F5F5F5F5F5F5F5F5F5F5F5F5F5F5F5F5F5F5F5F5F5F5F5F5F5F5F5F5F5F5F5F5F5F5F5F5F5F5F5F5F5F5F5F5F5F5E2F5F5F5E2E2EFE2F5F5
310
F5E2F5F5F5F5F5F5F5F5F5F5F5F5F5F5F5F5F5F5F5F5F5F5F5F5F5F5F5F5F5F5F5F5F5F5F5F5F5F5F5F5F5F5F5F5F5F5F5F5F5F5F5F5F5F5F5F5F5F5F5F5F5F5F5F5F5F5F5F5F5F5F5F5F5F5F5F5F5F5F5F5F5F5F5F5F5F5F5F5F5F5F5F5F5F5F5F5F5F5F5F5F5F5F5F5F5F5F5F5F5F5F5F5F5F5F5F5F5F5F5F5F5F5F5F5F5
310
F5F5F5F5F5F5F5F5F5F5F5F5F5F5F5F5F5F5F5F5F5F5F5F5F5F5F5F5F5F5F5F5F5F5F5F5F5F5F5F5F5F5F5E2F5F5F5E2E2EFE2F5F5F5E2F5F5F5F5F5F5F5F5F5F5F5F5F5F5F5F5F5F5F5F5F5F5F5F5F5F5F5F5F5F5F5F5F5F5F5F5F5F5F5F5F5F5F5F5F5F5F5F5F5F5F5F5F5F5F5F5F5F5F5F5F5F5F5F5F5F5F5F5F5F5F5F5
310
F5F5F5F5F5F5F5F5F5F5F5F5F5F5F5F5F5F5F5F5F5F5F5F5F5F5F5F5F5F5F5F5F5F5F5F5F5F5F5F5F5F5F5F5F5F5F5F5F5F5F5F5F5F5F5F5F5F5F5F5F5F5F5F5F5F5F5F5F5F5F5F5F5F5F5F5F5F5F5F5F5F5F5F5F5F5F5F5F5F5F5F5F5F5F5F5E2F5F5F5E2E2EFE2F5F5F5F5F5F5F5F5F5F5F5F5F5F5F5F5F5F5F5F5F5F5F5
310
F5F5F5F5F5F5F5F5F5F5F5F5F5F5F5F5F5F5F5F5F5F5F5F5F5F5F5F5F5F5F5F5F5F5F5F5F5F5F5F5F5F5F5F5F5F5F5F5F5F5F5F5F5F5F5F5F5F5F5F5F5F5F5F5F5F5F5F5F5F5F5F5F5F5F5F5F5F5F5F5F5F5F5F5F5F5F5F5F5F5F5F5F5F5F5F5F5F5F5F5F5F5F5F5F5F5F5F5F5F5F5F5F5F5F5F5F5F5F5F5F5F5F5F5F5F5F5
310
F5F5F5F5F5F5F5F5F5F5F5F5F5F5F5F5F5F5F5F5F5F5F5F5F5F5E2E2EFE2F5F5F5F5F5F5F5F5F5F5F5F5F5F5F5F5F5F5F5F5F5F5F5F5F5F5F5F5F5F5F5F5F5F5F5F5F5F5F5F5F5F5F5F5F5F5F5F5F5F5F5F5F5F5F5F5F5F5F5F5F5F5F5F5F5F5F5F5F5F5F5F5F5F5F5F5F5F5F5F5F5F5F5F5F5F5F5F5F5F5F5F5F5F5F5F5F5
310
F5F5F5F5F5F5F5F5F5F5F5F5F5F5F5F5F5F5F5F5F5F5F5F5F5F5F5F5F5F5F5F5F5F5F5F5F5F5F5F5F5F5F5F5F5F5F5F5F5F5F5F5F5F5F5F5F5F5F5F5F5F5F5F5F5F5F5F5F5F5F5F5F5F5F5F5F5F5F5E2E2EFE2F5F5F5F5F5F5F5F5F5F5F5F5F5F5F5F5F5F5F5F5F5F5F5F5F5F5F5F5F5F5F5F5F5F5F5F5F5F5F5F5F5F5F5F5
310
F5F5F5F5F5F5F5F5F5F5F5F5F5F5F5F5F5F5F5F5F5F5F5F5F5F5F5F5F5F5F5F5F5F5F5F5F5F5F5F5F5F5F5F5F5F5F5F5F5F5F5F5F5F5F5F5F5F5F5F5F5F5F5F5F5F5F5F5F5F5F5F5F5F5F5F5F5F5F5F5F5F5F5F5F5F5F5F5F5F5F5F5F5F5F5F5F5F5F5F5F5F5F5F5F5F5F5F5F5F5F5F5F5F5F5F5F5F5F5F5F5F5F5F5F5F5F5
310
F5F5F5F5F5E2E2EFE2F5F5F5F5F5F5F5F5F5F5F5F5F5F5F5F5F5F5F5F5F5F5F5F5F5F5F5F5F5F5F5F5F5F5F5F5F5F5F5F5F5F5F5F5F5F5F5F5F5F5F5F5F5F5F5F5F5F5F5F5F5F5F5F5F5F5F5F5F5F5F5F5F5F5F5F5F5F5F5F5F5F5F5F5F5F5F5F5F5F5F5F5F5F5F5F5F5F5F5F5F5F5F5F5F5F5F5F5F5F5F5F5F5F5F5F5F5F5
310
F5F5F5F5F5F5F5F5F5F5F5F5F5F5F5F5F5F5F5F5F5F5F5F5F5F5F5F5F5F5F5F5F5F5F5F5F5F5F5F5F5F5F5F5F5F5F5F5F5F5F5F5F5F5F5F5F5F5E2E2EFE2F5F5F5F5F5F5F5F5F5F5F5F5F5F5F5F5F5F5F5F50F0F0F0F0F0F0F0F0F0F0F0F0F0F0F0F0F0F0F0F0F0F0F0F0F0F0F0F0F0F0F0F0F0F0F0F0F0F0F0F0F0F0F0F0F
310
0F0F0F0F0F0F0F0F0F0F0F0F0F0F0F0F0F0F0F0F0F0F0F0F0F0F0F0F0F0F0F0F0F0F0F0F0F0F0F0F0F0F0F0F0F0F0F0F0F0F0F0F0F0F0F0F0F0F0F0F0F0F0F0F0F0F0F0F0F0F0F0F0F0F0F0F0F0F0F0F0F0F0F0F0F0F0F0F0F0F0FF5F5F5F5F5F5F5F5F5F5F5F5F5F5F5F5F5F5F5F5E2E2EFE2F5F5F5F5F5F5F5F5F5F5F5F5
310
F5F5F5F5F5F5F5F50FF5F5F5F5F5F5F5F5F5F5F5F5F5F5F5F5F5F5F5F5F5F5F5F5F5F5F5F5F5F5F5F5F5F5F5F5F5F5F5F5F5F5F5F5F5F5F5F5F5F5F5F5F5F5F5F5F5F5F5F5F5F5F5F5F5F5F5F5F5F5F5F5F5F5F5F5F5F5F5F5F5F5F5F5F5F5F5F5F5F5F5F5F5F5F5F5F5F5F5F5F5F5F5F5F5F5F5F5F5F5F5F5F5F5F5F5F5F5
310
F5F5F5F5F5F5F5F5F5F5F5F5F5F5F5F50FF5F5F5F5F5F5F5F5F5F5F5F5F5F5F5F5F5F5F5F5E2E2EFE2F5F5F5F5F5F5F5F5F5F5F5F5F5F5F5F5F5F5F5F50FF5F5F5F5F5F5F5F5F5F5F5F5F5F5F5F5F5F5F5F5F5F5F5F5F5F5F5F5F5F5F5F5F5F5F5F5F5F5F5F5F5F5F5F5F5F5F5F5F5F5F5F5F5F5F5F5F5F5F5F5F5F5F5F5F5
310
F5F5F5F5F5F5F5F5F5F5F5F5F5F5F5F5F5F5F5F5F5F5F5F5F5F5F5F5F5F5F5F5F5F5F5F5F5F5F5F5F5F5F5F5F5F5F5F5F5F5F5F5F5F5F5F5F5F5F5F5F5F5F5F5F5F5F5F5F50FF5F5F5F5F5F5F5F5F5F5F5F5F5F5F5F5F5F5F5F5E2E2EFE2F5F5F5F5F5F5F5F5F5F5F5F5F5F5F5F5F5F5F5F50FF5F5F5F5F5F5F5F5F5F5F5F5
310
F5F5F5F5F5F5F5F5F5F5F5F5F5F5F5F5F5F5F5F5F5F5F5F5F5F5F5F5F5F5F5F5F5F5F5F5F5F5F5F5F5F5F5F5F5F5F5F5F5F5F5F5F5F5F5F5F5F5F5F5F5F5F5F5F5F5F5F5F5F5F5F5F5F5F5F5F5F5F5F5F5F5F5F5F5F5F5F5F5F5F5F5F5F5F5F5F5F5F5F5F5F5F5F5F5F5F5F5F5F5F5F5F5F5F5F5F5F5F5F5F5F50FF5F5F5F5
310
F5F5F5F5F5F5F5F5F5F5F5F5F5F5F5F5E2E2EFE2F5F5F5F5F5F5F5F5F5F5F5F5F5F5F5F5F5F5F5F50FF5F5F5F5F5F5F5F5F5F5F5F5F5F5F5F5F5F5F5F5F5F5F5F5F5F5F5F5F5F5F5F5F5F5F5F5F5F5F5F5F5F5F5F5F5F5F5F5F5F5F5F5F5F5F5F5F5F5F5F5F5F5F5F5F5F5F5F5F5F5F5F5F5F5F5F5F5F5F5F5F5F5F5F5F5F5
310
F5F5F5F5F5F5F5F5F5F5F5F5F5F5F5F5F5F5F5F5F5F5F5F5F5F5F5F5F5F5F5F5F5F5F5F5F5F5F5F5F5F5F5F5F5F5F5F50FF5F5F5F5F5F5F5F5F5F5F5F5F5F5F5F5F5F5F5F5E2E2EFE2F5F5F5E2F5F5F5F5F5F5F5F5F5F5F5F5F5F5F5F50FF5F5F5F5F5F5F5F5F5F5F5F5F5F5F5F5F5F5F5F5F5F5F5F5F5F5F5F5F5F5F5F5F5
310
F5F5F5F5F5F5F5F5F5F5F5F5F5F5F5F5F5F5F5F5F5F5F5F5F5F5F5F5F5F5F5F5F5F5F5F5F5F5F5F5F5F5F5F5F5F5F5F5F5F5F5F5F5F5F5F5F5F5F5F5F5F5F5F5F5F5F5F5F5F5F5F5F5F5F5F5F5F5F5F5F5F5F5F5F5F5F5F5F5F5F5F5F5F5F5F5F5F5F5F5F50FF5F5F5F5F5F5F5F5F5F5F5F5F5F5F5F5E2F5F5F5E2E2EFE2F5
310
F5F5E2F5F5F5F5F5F5F5F5F5F5F5F5F5F5F5F50FF5F5F5F5F5F5F5F5F5F5F5F5F5F5F5F5F5F5F5F5F5F5F5F5F5F5F5F5F5F5F5F5F5F5F5F5F5F5F5F5F5F5F5F5F5F5F5F5F5F5F5F5F5F5F5F5F5F5F5F5F5F5F5F5F5F5F5F5F5F5F5F5F5F5F5F5F5F5F5F5F5F5F5F5F5F5F5F5F5F5F5F5F5F5F5F5F5F5F5F5F5F5F5F5F5F5F5
310
F5F5F5F5F5F5F5F5F5F5F5F5F5F5F5F5F5F5F5F5F5F5F5F5F5F5F50FF5F5F5F5F5F5F5F5F5F5F5F5F5F5F5F5E2F5F5F5E2E2EFE2F5F5F5E2F5F5F5F5F5F5F5F5F5F5F5F5F5F5F5F50FF5F5F5F5F5F5F5F5F5F5F5F5F5F5F5F5F5F5F5F5F5F5F5F5F5F5F5F5F5F5F5F5F5F5F5F5F5F5F5F5F5F5F5F5F5F5F5F5F5F5F5F5F5F5
310
F5F5F5F5F5F5F5F5F5F5F5F5F5F5F5F5F5F5F5F5F5F5F5F5F5F5F5F5F5F5F5F5F5F5F5F5F5F5F5F5F5F5F5F5F5F5F5F5F5F5F5F5F5F5F5F5F5F5F5F5F5F5F5F5F5F5F5F5F5F5F5F5F5F5F5F5F5F5F5F50FF5F5F5F5F5F5F5F5F5F5F5F5F5F5F5F5E2F5F5F5E2E2EFE2F5F5F5E2F5F5F5F5F5F5F5F5F5F5F5F5F5F5F5F50FF5
310
F5F5F5F5F5F5F5F5F5F5F5F5F5F5F5F5F5F5F5F5F5F5F5F5F5F5F5F5F5F5F5F5F5F5F5F5F5F5F5F5F5F5F5F5F5F5F5F5F5F5F5F5F5F5F5F5F5F5F5F5F5F5F5F5F5F5F5F5F5F5F5F5F5F5F5F5F5F5F5F5F5F5F5F5F5F5F5F5F5F5F5F5F5F5F5F5F5F5F5F5F5F5F5F5F5F5F5F5F5F5F5F5F5F5F5F5F5F5F5F5F5F5F5F5F5F5F5
310
F5F5F5F5F5F50FF5F5F5F5F5F5F5F5F5F5F5F5F5F5F5F5E2F5F5F5E2E2EFE2F5F5F5E2F5F5F5F5F5F5F5F5F5F5F5F5F5F5F5F50FF5F5F5F5F5F5F5F5F5F5F5F5F5F5F5F5F5F5F5F5F5F5F5F5F5F5F5F5F5F5F5F5F5F5F5F5F5F5F5F5F5F5F5F5F5F5F5F5F5F5F5F5F5F5F5F5F5F5F5F5F5F5F5F5F5F5F5F5F5F5F5F5F5F5F5
310
F5F5F5F5F5F5F5F5F5F5F5F5F5F5F5F5F5F5F5F5F5F5F5F5F5F5F5F5F5F5F5F5F5F5F5F5F5F5F5F5F5F5F5F5F5F5F5F5F5F5F5F5F5F5F5F5F5F5F50FF5F5F5F5F5F5F5F5F5F5F5F5F5F5F5F5E2F5F5F5E2E2EFE2F5F5F5E2F5F5F5F5F5F5F5F5F5F5F5F5F5F5F5F50FF5F5F5F5F5F5F5F5F5F5F5F5F5F5F5F5F5F5F5F5F5F5
310
F5F5F5F5F5F5F5F5F5F5F5F5F5F5F5F5F5F5F5F5F5F5F5F5F5F5F5F5F5F5F5F5F5F5F5F5F5F5F5F5F5F5F5F5F5F5F5F5F5F5F5F5F5F5F5F5F5F5F5F5F5F5F5F5F5F5F5F5F5F5F5F5F5F5F5F5F5F5F5F5F5F5F5F5F5F5F5F5F5F5F5F5F5F5F5F5F5F5F5F5F5F5F5F5F5F5F5F5F5F5F5F50FF5F5F5F5F5F5F5F5F5F5F5F5F5F5
310
F5F5E2F5F5F5E2E2EFE2F5F5F5E2F5F5F5F5F5F5F5F5F5F5F5F5F5F5F5F50FF5F5F5F5F5F5F5F5F5F5F5F5F5F5F5F5F5F5F5F5F5F5F5F5F5F5F5F5F5F5F5F5F5F5F5F5F5F5F5F5F5F5F5F5F5F5F5F5F5F5F5F5F5F5F5F5F5F5F5F5F5F5F5F5F5F5F5F5F5F5F5F5F5F5F5F5F5F5F5F5F5F5F5F5F5F5F5F5F5F5F5F5F5F5F5F5
310
F5F5F5F5F5F5F5F5F5F5F5F5F5F5F5F5F5F5F5F5F5F5F5F5F5F5F5F5F5F5F5F5F5F5F5F5F5F50FF5F5F5F5F5F5F5F5F5F5F5F5F5F5F5F5E2F5F5F5E2E2EFE2F5F5F5E2F5F5F5F5F5F5F5F5F5F5F5F5F5F5F5F50FF5F5F5F5F5F5F5F5F5F5F5F5F5F5F5F5F5F5F5F5F5F5F5F5F5F5F5F5F5F5F5F5F5F5F5F5F5F5F5F5F5F5F5
310
F5F5F5F5F5F5F5F5F5F5F5F5F5F5F5F5F5F5F5F5F5F5F5F5F5F5F5F5F5F5F5F5F5F5F5F5F5F5F5F5F5F5F5F5F5F5F5F5F5F5F5F5F5F5F5F5F5F5F5F5F5F5F5F5F5F5F5F5F5F5F5F5F5F5F5F5F5F5F5F5F5F5F5F5F5F5F5F5F5F5F50FF5F5F5F5F5F5F5F5F5F5F5F5F5F5F5F5E2F5F5F5E2E2EFE2F5F5F5E2F5F5F5F5F5F5F5
310
F5F5F5F5F5F5F5F5F50FF5F5F5F5F5F5F5F5F5F5F5F5F5F5F5F5F5F5F5F5F5F5F5F5F5F5F5F5F5F5F5F5F5F5F5F5F5F5F5F5F5F5F5F5F5F5F5F5F5F5F5F5F5F5F5F5F5F5F5F5F5F5F5F5F5F5F5F5F5F5F5F5F5F5F5F5F5F5F5F5F5F5F5F5F5F5F5F5F5F5F5F5F5F5F5F5F5F5F5F5F5F5F5F5F5F5F5F5F5F5F5F5F5F5F5F5F5
310
F5F5F5F5F5F5F5F5F5F5F5F5F5F5F5F5F50FF5F5F5F5F5F5F5F5F5F5F5F5F5F5F5F5E2F5F5F5E2E2EFE2F5F5F5E2F5F5F5F5F5F5F5F5F5F5F5F5F5F5F5F50FF5F5F5F5F5F5F5F5F5F5F5F5F5F5F5F5F5F5F5F5F5F5F5F5F5F5F5F5F5F5F5F5F5F5F5F5F5F5F5F5F5F5F5F5F5F5F5F5F5F5F5F5F5F5F5F5F5F5F5F5F5F5F5F5
310
F5F5F5F5F5F5F5F5F5F5F5F5F5F5F5F5F5F5F5F5F5F5F5F5F5F5F5F5F5F5F5F5F5F5F5F5F5F5F5F5F5F5F5F5F5F5F5F5F5F5F5F5F5F5F5F5F5F5F5F5F5F5F5F5F5F5F5F5F5F50FF5F5F5F5F5F5F5F5F5F5F5F5F5F5F5F5E2F5F5F5E2E2EFE2F5F5F5E2F5F5F5F5F5F5F5F5F5F5F5F5F5F5F5F50FF5F5F5F5F5F5F5F5F5F5F5
310
F5F5F5F5F5F5F5F5F5F5F5F5F5F5F5F5F5F5F5F5F5F5F5F5F5F5F5F5F5F5F5F5F5F5F5F5F5F5F5F5F5F5F5F5F5F5F5F5F5F5F5F5F5F5F5F5F5F5F5F5F5F5F5F5F5F5F5F5F5F5F5F5F5F5F5F5F5F5F5F5F5F5F5F5F5F5F5F5F5F5F5F5F5F5F5F5F5F5F5F5F5F5F5F5F5F5F5F5F5F5F5F5F5F5F5F5F5F5F5F5F5F5F50FF5F5F5
310
F5F5F5F5F5F5F5F5F5F5F5F5F5E2F5F5F5E2E2EFE2F5F5F5E2F5F5F5F5F5F5F5F5F5F5F5F5F5F5F5F50FF5F5F5F5F5F5F5F5F5F5F5F5F5F5F5F5F5F5F5F5F5F5F5F5F5F5F5F5F5F5F5F5F5F5F5F5F5F5F5F5F5F5F5F5F5F5F5F5F5F5F5F5F5F5F5F5F5F5F5F5F5F5F5F5F5F5F5F5F5F5F5F5F5F5F5F5F5F5F5F5F5F5F5F5F5
310
F5F5F5F5F5F5F5F5F5F5F5F5F5F5F5F5F5F5F5F5F5F5F5F5F5F5F5F5F5F5F5F5F5F5F5F5F5F5F5F5F5F5F5F5F5F5F5F5F50FF5F5F5F5F5F5F5F5F5F5F5F5F5F5F5F5E2F5F5F5E2E2EFE2F5F5F5E2F5F5F5F5F5F5F5F5F5F5F5F5F5F5F5F50FF5F5F5F5F5F5F5F5F5F5F5F5F5F5F5F5F5F5F5F5F5F5F5F5F5F5F5F5F5F5F5F5
310
F5F5F5F5F5F5F5F5F5F5F5F5F5F5F5F5F5F5F5F5F5F5F5F5F5F5F5F5F5F5F5F5F5F5F5F5F5F5F5F5F5F5F5F5F5F5F5F5F5F5F5F5F5F5F5F5F5F5F5F5F5F5F5F5F5F5F5F5F5F5F5F5F5F5F5F5F5F5F5F5F5F5F5F5F5F5F5F5F5F5F5F5F5F5F5F5F5F5F5F5F5F50FF5F5F5F5F5F5F5F5F5F5F5F5F5F5F5F5E2F5F5F5E2E2EFE2
310
F5F5F5E2F5F5F5F5F5F5F5F5F5F5F5F5F5F5F5F50FF5F5F5F5F5F5F5F5F5F5F5F5F5F5F5F5F5F5F5F5F5F5F5F5F5F5F5F5F5F5F5F5F5F5F5F5F5F5F5F5F5F5F5F5F5F5F5F5F5F5F5F5F5F5F5F5F5F5F5F5F5F5F5F5F5F5F5F5F5F5F5F5F5F5F5F5F5F5F5F5F5F5F5F5F5F5F5F5F5F5F5F5F5F5F5F5F5F5F5F5F5F5F5F5F5F5
310
F5F5F5F5F5F5F5F5F5F5F5F5F5F5F5F5F5F5F5F5F5F5F5F5F5F5F5F50FF5F5F5F5F5F5F5F5F5F5F5F5F5F5F5F5E2F5F5F5E2E2EFE2F5F5F5E2F5F5F5F5F5F5F5F5F5F5F5F5F5F5F5F50FF5F5F5F5F5F5F5F5F5F5F5F5F5F5F5F5F5F5F5F5F5F5F5F5F5F5F5F5F5F5F5F5F5F5F5F5F5F5F5F5F5F5F5F5F5F5F5F5F5F5F5F5F5
310
F5F5F5F5F5F5F5F5F5F5F5F5F5F5F5F5F5F5F5F5F5F5F5F5F5F5F5F5F5F5F5F5F5F5F5F5F5F5F5F5F5F5F5F5F5F5F5F5F5F5F5F5F5F5F5F5F5F5F5F5F5F5F5F5F5F5F5F5F5F5F5F5F5F5F5F5F5F5F5F5F50FF5F5F5F5F5F5F5F5F5F5F5F5F5F5F5F5E2F5F5F5E2E2EFE2F5F5F5E2F5F5F5F5F5F5F5F5F5F5F5F5F5F5F5F50F
310
F5F5F5F5F5F5F5F5F5F5F5F5F5F5F5F5F5F5F5F5F5F5F5F5F5F5F5F5F5F5F5F5F5F5F5F5F5F5F5F5F5F5F5F5F5F5F5F5F5F5F5F5F5F5F5F5F5F5F5F5F5F5F5F5F5F5F5F5F5F5F5F5F5F5F5F5F5F5F5F5F5F5F5F5F5F5F5F5F5F5F5F5F5F5F5F5F5F5F5F5F5F5F5F5F5F5F5F5F5F5F5F5F5F5F5F5F5F5F5F5F5F5F5F5F5F5F5
310
F5F5F5F5F5F5F50FF5F5F5F5F5F5F5F5F5F5F5F5F5F5F5F5E2F5F5F5E2E2EFE2F5F5F5E2F5F5F5F5F5F5F5F5F5F5F5F5F5F5F5F50F5959595959595959595959595959595959595959595959595959595959595959282828282859595959595959595959595959595959595928595959595959595959595959595959282859
310
59F5F5F5F5F5F5F5F5F5F5F5F5F5F5F5F5F5F5F5F5F5F5F5F5F5F5F5F5F5F5F5F5F5F5F5F5F5F5F5F5F5F5F5F5F5F5F5F5F5F5F5F5F5F5F5F5F5F5F50FF5F5F5F5F5F5F5F5F5F5F5F5F5F5F5F5E2F5F5F5E2E2EFE2F5F5F5F5F5F5F5F5F5F5F5F5F5F5F5F5F5F5F5F50FF559F5F5F5F5F5F5F5F5F5F5F5F5F5F5F5F5F5F5F5
310
F5F5F5F5F5F5F5F5F5592828282828282828282828592859595928282828595959282828282859595959595959595959595928595959F5F5F5F5F5F5F5F5F5F5F5F5F5F5F5F5F5F5F5F5F5F5F5F5F5F5F5F5F5F5F5F5F5F5F5F5F5F5F5F5F5F5F5F5F5F5F5F5F5F5F5F5F5F5F5F5F5F5F50FF5F5F5F5F5F5F5F5F5F5F5F5F5
310
F5F5F5F5F5F5F5E2E2EFE2F5F5F5F5F5F5F5F5F5F5F5F5F5F5F5F5F5F5F5F50F5959F5F5F5F5F5F5F5F5F5F5F5F5F5F5F5F5F5F5F5F5F5F5F5F5F5F5F5F5592828282828595959595959595959F5F5F5F5F5F5F5F5F559F5F5595959592828282828282828282828595959F5F5F5F5F5F5F5F5F5F5F5F5F5F5F5F5F5F5F5F5
310
F5F5F5F5F5F5F5F5F5F5F5F5F5F5F5F5F5F5F5F5F5F5F5F5F5F5F5F5F5F5F5F5F5F5F5F5F5F5F50FF5F5F5F5F5F5F5F5F5F5F5F5F5F5F5F5F5F5F5F5E2E2EFE2F5F5F5F5F5F5F5F5F5F5F5F5F5F5F5F5F5F5F5F50F5959F5F5F5F5F5F5F5F5F5F5F5F5F5F5F5F5F5F5F5F5F5F5F5F5F5F5F5F5282828282828282828282828
310
285959F5F5F5F5F5F5F5F5F559F5F559595928F52828F5F5F5F5F5F5F528282859F5F5F5F5F5F5F5F5F5F5F5F5F5F5F5F5F5F5F5F5F5F5F5F5F5F5F5F5F5F50F0F0F0F0F0F0F0F0F0FF5F5F5F5F5F5F5F5F5F5F5F5F5F5F5F5F5F5F50FF5F5F5F5F5F5F5F5F5F5F5F5F5F5F5F5F5F5F5F5E2E2EFE2F5F5F5F5F5F5F5F5F5F5
310
F5F5F5F5F5F5F5F5F5F50FF559F5F5F5F5F5F5F5F5F5F5F5F5F5F5F5F5F5F5F5F5F5F5F5F5F5F5F5F5282828282828282828282828285959F5F5F5F5F5F5F5F5F559F5F5595959595959595959595959595959282859F5F5F5F5F5F5F5F5F5F5F5F5F5F5F5F5F5F5F5F5F5F5F5F50F0F0F0F0F0F0F0F0FF5F5F5F5F5F50F0F
310
F5F5F5F5F5F5F5F5F5F5F5F5F5F5F5F5F5F50FF5F5F5F5F5F5F5F5F5F5F5F5F5F5F5F5F5F5F5F5E2E2EFE2F5F5F5F5F5F5F5F5F5F5F5F5F5F5F5F5F5F5F5F50FF559F5F5F5F5F5F5F5F5F5F5F5F5F5F5F5F5F5F5F5F5F5F5F5F5F5F5F5F528282828F5F5F5F5F5F5F5F5F55959595959595959595959595959595959592828
310
282828282828285959595959F5F5F5F5F5F5F5F5F5F5F5F5F5F5F5F5F5F5F5F5F5F5F5F5F5F50F0F0F0F0FF5F50F0F0F0F0F0F0F0F0FF5F5F5F5F5F5F5F5F5F5F5F5F5F5F5F5F50FF5F5F5F5F5F5F5F5F5F5F5F5F5F5F5F5F5F5F5F5E2E2EFE2F5F5F5F5F5F5F5F5F5F5F5F5F5F5F5F5F5F5F5F50F5959F5F5F5F5F5F5F5F5
310
F5F5F5F5F5F5F5F5F5F5F5F5F5F5F5F5F5F5F5F5F5F5F5F5F5F5F5F5F5F5F5F5F5F5F5F5F5F5F5F5F5F5F5F5F5F5F5F5F5F5F5F5F5F5F5F5F5F5F5F5F5F5F5F559F5F5F5F5F5F5F5F5F5F5F5F5F5F5F5F5F5F5F5F5F5F5F5F5F5F5F5F5E2F5F50F0F0F0F0F0F0F0F0F0FF5F5F5F5F5F5F5F5F5F5F5F5F5F5F5F5F5F50FF5F5
310
F5F5F5F5F5F5F5F5F5F5F5F5F5F5F5F5F5F5E2E2EFE2F5F5F5F5F5F5F5F5F5F5F5F5F5F5F5F5F5F5F5F50FF559F5F5F5F5F5F5F5F5F5F5F5F5F5F5F5F5F5F5F5F5F5F5F5F5F5F5F5F5F5F5F5F5F5F5F5F5F5F5F5F5F5F5F5F5F5F5F5F5F5F5F5F5F5F5F5F5F5F5F5F5F5F5F5F5F5F5F5F5F5F5F5F559F5F5F5F5F5F5F5F5F5
310
F5F5F5F5F5F5F5F5F5F5F5F5F5F5F5F5F5F5F5E2F5F5F5F5F5F5E2F5F5F5F5F5F5F5F5F5F5F5F5F5F5F5F5F5F5F5F5F5F5F50FF5F5F5F5F5F5F5F5F5F5F5F5F5F5F5F5F5F5F5F5E2E2EFE2F5F5F5F5F5F5F5F5F5F5F5F5F5F5F5F5F5F5F5F50F5959F5F5F5F5F5F5F5F5F5F5F5F5F5F5F5F5F5F5F5F5F5F5F5F5F5F5F5F5F5
310
F5F5F5F5F5F5F5F5F5F5F5F5F5F5F5F5F5F5F5F5F5F5F5F5F5F5F5F5F5F5F5F5F5F5F5F5F5F5F5F5F5F5F559F5F5F5F5F5F5F5F5F5F5F5F5F5F5F5F5F5F5F5F5F5F5F5F5F5F5F5F5E2F5F5F5F5F5F5E2F5F5F5F5F5F5F5F5F5F5F5F5F5F5F5F5F5F5F5F5F5F5F50FF5F5F5F5F5F5F5F5F5F5F5F5F5F5F5F5F5F5F5F5E2E2EF
310
E2F5F5F5F5F5F5F5F5F5F5F5F5F5F5F5F5F5F5F5F50F5959F5F5F5F5F5F5F5F5F5F5F5F5F5F5F5F5F5F5F5F5F5F5F5F5F5F5F5F5F5F5F5F5F5F5F5F5F5F5F5F5F5F5F5F5F5F5F5F5F5F5F5F5F5F5F5F5F5F5F5F5F5F5F5F5F5F5F5F5F5F5F5F559F5F5F5F5F5F5F5F5F5F5F5F5F5F5F5F5F5F5F5F5F5F5F5F5F5F5F5F5E2F5
310
F5F5F5F5F5E2F5F5F5F5F5F5F5F5F5F5F5F5F5F5F5F5F5F5F5F5F5F5F50FF5F5F5F5F5F5F5F5F5F5F5F5F5F5F5F5F5F5F5F5E2E2EFE2F5F5F5E2F5F5F5F5F5F5F5F5F5F5F5F5F5F5F5F50FF559F5F5F5F5F5F5F5F5F5F5F5F5F5F5F5F5F5F5F5F5F5F5F5F5F5F5F5F5F5F5F5F5F5F5F5F5F5F5F5F5F5F5F5F5F5F5F5F5F5F5
310
F5F5F5F5F5F5F5F5F5F5F5F5F5F5F5F5F5F5F5F5F5F559F5F5F5F5F5F5F5F5F5F5F5F5F5F5F5F5F5F5F5F5F5F5F5F5F5F5F5F5E2F5F5F5F5F5F5E2F5F5F5F5F5F5F5F5F5F5F5F5F5F5F5F5F5F5F5F5F5F5F50FF5F5F5F5F5F5F5F5F5F5F5F5F5F5F5F5E2F5F5F5E2E2EFE2F5F5F5E2F5F5F5F5F5F5F5F5F5F5F5F5F5F5F5F5
310
0FF559F5F5F5F5F5F5F5F5F5F5F5F5F5F5F5F5F5F5F5F5F5F5F5F5F5F5F5F5F5F5F5F5F5F5F5F5F5F5F5F5F5F5F5F5F5F5F5F5F5F5F5F5F5F5F5F5F5F5F5F5F5F5F5F5F5F5F5F5F5F5F5F559F5F5F5F5F5F5F5F5F5F5F5F5F5F5F5F5F5F5F5F5F5F5F5F5F5F5F5F5E2F5F5F5F5F5F5E2F5F5F5F5F5F5F5F5F5F5F5F5F5F5F5
310
F5F5F5F5F5F5F5F50FF5F5F5F5F5F5F5F5F5F5F5F5F5F5F5F5E2F5F5F5E2E2EFE2F5F5F5E2F5F5F5F5F5F5F5F5F5F5F5F5F5F5F5F50F5959F5F5F5F5F5F5F5F5F5F5F5F5F5F5F5F5F5F5F5F5F5F5F5F5F5F5F5F5F5F5F5F5F5F5F5F5F5F5F5F5F5F5F5F5F5F5F5F5F5F5F5F5F5F5F5F5F5F5F5F5F5F5F5F5F5F5F5F5F5F5F5
310
F559F5F5F5F5F5F5F5F5F5F5F5F5F5F5F5F5F5F5F5F5F5F5F5F5F5F5F5F5E2F5F5F5F5F5F5E2F5F5F5F5F5F5F5F5F5F5F5F5F5F5F5F5F5F5F5F5F5F5F50FF5F5F5F5F5F5F5F5F5F5F5F5F5F5F5F5E2F5F5F5E2E2EFE2F5F5F5E2F5F5F5F5F5F5F5F5F5F5F5F5F5F5F5F50FF559F5F5F5F5F5F5F5F5F5F5F5F5F5F5F5F5F5F5
310
F5F5F5F5F5F5F5F5F5F5F5F5F5F5F5F5F5F5F5F5F5F5F5F5F5F5F5F5F5F5F5F5F5F5F5F5F5F5F5F5F5F5F5F5F5F5F5F5F5F5F5F5F5F559F5F5F5F5F5F5F5F5F5F5F5F5F5F5F5F5F5F5F5F5F5F5F5F5F5F5F5E2F5F5F5F5F5F5F5E2F5F5F5F5F5F5F5F5F5F5F5F5F5F5F5F5F5F5F5F5F5F5F50FF5F5F5F5F5F5F5F5F5F5F5F5
310
F5F5F5F5E2F5F5F5E2E2EFE2F5F5F5E2F5F5F5F5F5F5F5F5F5F5F5F5F5F5F5F50F5959F5F5F5F5F5F5F5F5F5F5F5F5F5F5E20FE2E2E2E2E2E2E2E20FE2E2E2E2E2E2E2E2E2E2E2E2F5F5F5F5F5F5F5F5F5F5F5F5F5F5F5F5F5F5F5F5F5F5F5F5F5F5F5F5F5F5F5F5F5F5F559F5F5F5F5F5F5F5F5F5F5F5F5F5F5F5F5F5F5F5
310
F5F5F5F5F5F5F5F5E2F5F5F5F5F5F5F5E2F5F5F5F5F5F5F5F5F5F5F5F5F5F5F5F5F5F5F5F5F5F5F50FF5F5F5F5F5F5F5F5F5F5F5F5F5F5F5F5E2F5F5F5E2E2EFE2F5F5F5E2F5F5F5F5F5F5F5F5F5F5F5F5F5F5F5F50F5959F5F5F5E2F5F5F5F5F5F5E2E2E2E2E20FE2E2E2BEF5F5E2F50FE2F5BEE2E2E2E2E2E2E2E2E2E2E2
310
F5F5F5F5F5F5F5F5F5F5F5F5F5F5F5F5F5F5F5F5F5F5F5F5F5F5F5F5F5F5F5F5F559F5F5F5F5F5F5F5F5F5F5F5F5F5F5E2F5F5F5F5F5F5F5F5F5F5F5F5E2F5F5F5F5F5F5F5E2F5F5F5F5F5F5F5F5F5F5F5F5F5F5F5F5F5F5F5F5F5F5F50FF5F5F5F5F5F5F5F5F5F5F5F5F5F5F5F5E2F5F5F5E2E2EFE2F5F5F5E2F5F5F5F5F5
310
F5F5F5F5F5F5F5F5F5F5F50FF559F5F5F5E2E2E2E2E2E2E2E2E2E2F5F5E2F5F5F5BEF5F5E2F50FE2F5BEE2F5F5F5F5E2E2E2E2E2E2E2E2E2E2F5F5F5F5F5F5F5F5F5F5F5F5F5F5F5F5F5F5F5F5F5F5F5F5F5F5F5F5F559F5F5F5F5F5F5F5F5F5F5F5F5F5F5E2E2E2F5F5F5F5F5F5F5F5F5F5E2F5F5F5F5F5F5F5E2F5F5F5F5
310
F5F5F5F5F5F5F5F5F5F5F5F5F5F5F5F5F5F5F50FF5F5F5F5F5F5F5F5F5F5F5F5F5F5F5F5E2F5F5F5E2E2EFE2F5F5F5E2F5F5F5F5F5F5F5F5F5F5F5F5F5F5F5F50FF559F5E2E2E2F5E2E2E2F5F5BEF5F5F5F5E2F5F5F5BEF5F5E2F50FF5E2BEF5E2F5F5F5F5F5BEF5E2E2E2F5E2E2E2E2F5F5F5F5F5F5F5F5F5F5F5F5F5F5F5
310
F5F5F5F5F5F5F5F5F5F5F5F559F5F5F5F5F5F5F5F5F5F5F5F5F5F5E2F5E2F5F5F5F5F5F5F5F5F5F5E2F5F5F5F5F5F5F5E2F5F5F5F5F5F5F5F5F5F5F5F5F5F5F5F5F5F5F5F5F5F5F50FF5F5F5F5F5F5F5F5F5F5F5F5F5F5F5F5E2F5F5F5E2E2EFE2F5F5F5E2F5F5F5F5F5F5F5F5F5F5F5F5F5F5F5F50F5959F5E2BEE2F5E2F5
310
F5F5F5BEF5F5F5F5E2F50F0F0F0F0F0F0F0FF5E2BEF5E2E2E2E2E2E2E2E2E2E2E2F5F5F5F5E2E2E2F5F5F5F5F5F5F5F5F5F5F5F5F5F5F5F5F5F5F5F5F5F5F5F5F559F5F5F5F5F5F5F5F5F5F5F5F5F5F5E2F5E2F5F5F5F5F5F5F5F5F5F5E2F5F5F5F5F5F5F5E2F5F5F5F5F5F5F5F5F5F5F5F5F5F5F5F5F5F5F5F5F5F5F50FF5
310
F5F5F5F5F5F5F5F5F5F5F5F5F5F5F5E2F5F5F5E2E2EFE2F5F5F5E2F5F5F5F5F5F5F5F5F5F5F5F5F5F5F5F50FF559F5E2BEE2BEE2BEBEBEBEBEBEBEBEBEE2BE0F0F0F0F0F0F0F0FBEBEE2BEBEE2BEBEBEBEBEBEBEBEBEBEBEBEBEBEBEE2E2F5F5F5F5F5F5F5F5F5F5F5F5F5F5F5F5F5F5F5F5F5F5F5F559F5F5F5F5F5F5F5F5
310
F5F5F5F5F5F5E2F5E2F5F5F5F5F5F5F5F5F5F5E2F5F5F5F5F5F5F5E2F5F5F5F5F5F5F5F5F5F5F5F5F5F5F5F5F5F5F5F5F5F5F50FF5F5F5F5F5F5F5F5F5F5F5F5F5F5F5F5E2F5F5F5E2E2EFE2F5F5F5E2F5F5F5F5F5F5F5F5F5F5F5F5F5F5F5F50F5959F5E2BEE2F5E2F5F5F5F5BEF5F5F5F5E2F50F0F0F0F0F0F0F0FF5E2BE
310
F5E2E2E2E2E2E2E2E2E2E2E2F5F5F5F5E2E2E2F5F5F5F5F5F5F5F5F5F5F5F5F5F5F5F5F5F5F5E2E2E2E2F5F559F5F5F5F5F5F5F5F5F5F5F5F5F5F5E2F5E2F5F5F5F5F5F5F5F5F5F5E2F5F5F5F5F5F5F5E2F5F5F5F5F5F5F5F5F5F5F5F5F5F5F5F5F5F5F5F5F5F5F50FF5F5F5F5F5F5F5F5F5F5F5F5F5F5F5F5E2F5F5F5E2E2
310
EFE2F5F5F5E2F5F5F5F5F5F5F5F5F5F5F5F5F5F5F5F50F5959F5E2E2E2E2E2E2F5F5F5BEF5F5F5F5E2F5F5F5BEF5F5E2F50FF5E2BEF5E2F5F5F5F5F5BEF5E2E2E2F5E2E2E2E2E2F5F5F5F5F5F5F5F5F5F5F5F5F5F5F5F5F5F5F5E2E2F5F5BEF5F559F5F5F5F5F5F5F5F5F5F5F5F5F5E2F5F5E2F5F5F5F5F5F5F5F5F5F5E2F5
310
F5F5F5F5F5F5E2F5F5F5F5F5F5F5F5F5F5F5F5F5F5F5F5F5F5F5F5F5F5F50FF5F5F5F5F5F5F5F5F5F5F5F5F5F5F5F5E2F5F5F5E2E2EFE2F5F5F5E2F5F5F5F5F5F5F5F5F5F5F5F5F5F5F5F50FF559F5F5E2F5F5E2E2E2E2E2E2E2E2F5F5E2F5F5F5BEF5F5E2F50FE2F5BEE2F5F5F5F5F5E2E2E2F5E2E2E2E2E2E2F5F5F5F5F5
310
F5F5F5F5F5F5F5F5F5F5F5F5F5F5F5F5E2F5F5F5BEF5F559F5F5F5F5F5F5F5F5F5F5F5F5F5E2F5F5E2F5F5F5F5F5F5F5F5F5F5E2F5F5F5F5F5F5F5E2F5F5F5F5F5F5F5F5F5F5F5F5F5F5F5F5F5F5F5F5F5F5F50FF5F5F5F5F5F5F5F5F5F5F5F5F5F5F5F5E2F5F5F5E2E2EFE2F5F5F5E2F5F5F5F5F5F5F5F5F5F5F5F5F5F5F5
310
F50FF559F5F5E2F5F5E2F5F5F5E2E2E2E2E2E20FE2E2F5BEF5F5E2F50FE2F5BEE2E2E2E2E2E2E2E2E2E2E2E2F5F5F5F5F5F5F5F5F5F5F5F5F5F5F5F5F5F5F5E2E2BEE2E2BEE2BEBEBEBEF5F559F5F5F5F5F5F5F5F5F5F5F5F5F5E2F5F5E2F5F5F5F5F5F5F5F5F5F5E2F5F5F5F5F5F5F5E2F5F5F5F5F5F5F5F5F5F5F5F5F5F5
310
F5F5F5F5F5F5F5F5F50FF5F5F5F5F5F5F5F5F5F5F5F5F5F5F5F5E2F5F5F5E2E2EFE2F5F5F5E2F5F5F5F5F5F5F5F5F5F5F5F5F5F5F5F50F5959F5F5E2F5F5E2F5F5F5F5F5F5F5F5E20FE2E2E2E2E2E2E2E20FE2E2E2E2E2E2E2E2E2E2E2E2E2F5F5F5F5F5F5F5F5F5F5F5F5F5F5F5F5F5F5F5F5F5E2E2E2E2BEF5E2F5F5F5BE
310
F5F559F5F5F5F5F5F5F5F5F5F5F5F5F5E2F5F5E2F5F5F5F5F5F5F5F5F5F5E2F5F5F5F5F5F5F5E2F5F5F5F5F5F5F5F5F5F5F5F5F5F5F5F5F5F5F5F5F5F5F50FF5F5F5F5F5F5F5F5F5F5F5F5F5F5F5F5E2F5F5F5E2E2EFE2F5F5F5E2F5F5F5F5F5F5F5F5F5F5F5F5F5F5F5F50FF559F5F5E2F5F5E2F5F5F5F5F5F5F5F5F5F5F5
310
F5F5F5F5F5F5F5F5F5F5F5F5F5F5F5F5F5F5F5F5F5F5F5F5F5F5F5F5F5F5F5F5F5F5F5F5F5F5F5F5F5F5E2E2E2F5BEF5E2F5F5F5BEF5F559F5F5F5F5F5F5F5F5F5F5F5F5F5E2F5F5E2F5F5F5F5F5F5F5F5F5F5E2F5F5F5F5F5F5F5E2F5F5F5F5F5F5F5F5F5F5F5F5F5F5F5F5F5F5F5F5F5F5F50FF5F5F5F5F5F5F5F5F5F5F5
310
F5F5F5F5F5E2F5F5F5E2E2EFE2F5F5F5E2F5F5F5F5F5F5F5F5F5F5F5F5F5F5F5F50F5959F5F5E2F5F5E2F5F5F5F5F5F5F5F5F5F5E2F5F5F5E2E2F5F5F5F5F5F5F5F5F5F5F5F5F5F5F5F5F5F5F5F5F5F5F5F5F5F5F5F5F5F5F5F5F5F5F5F5F5E2E2E2F5BEF5E2F5F5F5BEF5F559F5F5F5F5F5F5F5F5F5F5F5F5F5E2F5F5E2F5
310
F5F5F5F5F5F5F5F5F5E2F5F5F5F5F5F5F5E2F5F5F5F5F5F5F5F5F5F5F5F5F5F5F5F5F5F5F5F5F5F5F50FF5F5F5F5F5F5F5F5F5F5F5F5F5F5F5F5E2F5F5F5E2E2EFE2F5F5F5F5F5F5F5F5F5F5F5F5F5F5F5F5F5F5F5F50FF559F5F5E2F5F5E2F5F5F5F5F5F5F5F5F5F5F5E2E2F5E2F5E2E2F5F5F5F5F5F5F5F5F5F5F5F5F5F5
310
F5F5F5F5F5F5F5F5F5F5F5F5F5F5F5F5F5F5F5F5F5E2E2E2E2BEF5E2F5F5F5BEF5F559F5F5F5F5F5F5F5F5F5F5F5F5F5E2F5F5E2F5F5F5F5F5F5F5F5F5F5E2F5F5F5F5F5F5F5E2F5F5F5F5F5F5F5F5F5F5F5F5F5F5F5F5F5F5F5F5F5F5F50FF5F5F5F5F5F5F5F5F5F5F5F5F5F5F5F5F5F5F5F5E2E2EFE2F5F5F5F5F5F5F5F5
310
F5F5F5F5F5F5F5F5F5F5F5F50FF559F5F5E2F5F5E2F5F5F5F5F5F5F5F5F5F5F5E2F5E2E2E2F5F5E2E2F5F5F5F5F5F5F5F5F5F5F5F5F5F5F5F5F5F5F5F5F5F5F5F5F5F5F5F5F5F5F5F5F5E2E2F5E2E2F5E2E2E2E2E2F5F559F5F5F5F5F5F5F5F5F5F5F5F5F5E2F5F5E2F5F5F5F5F5F5F5F5F5F5E2F5F5F5F5F5F5F5E2F5F5F5
310
F5F5F5F5F5F5F5F5F5F5F5F5F5F5F5F5F5F5F5F50FF5F5F5F5F5F5F5F5F5F5F5F5F5F5F5F5F5F5F5F5E2E2EFE2F5F5F5F5F5F5F5F5F5F5F5F5F5F5F5F5F5F5F5F50FF559F5F5E2BEF5E2F5F5F5F5F5F5F5F5F5F5F5E2F5F5F5E2F5F5E2F5E2E2F5F5F5F5F5F5F5F5F5F5F5F5F5F5F5F5F5F5F5F5F5F5F5F5F5F5F5F5F5F5F5
310
F5F5F5F5F5F5F5F5F5F5F5F5F559F5F5F5F5F5F5F5F5F5F5F5F5F5E2BEF5E2F5F5F5F5F5F5F5F5F5E2F5F5F5F5F5F5F5F5E2F5F5F5F5F5F5F5F5F5F5F5F5F5F5F5F5F5F5F5F5F5F5F50FF5F5F5F5F5F5F5F5F5F5F5F5F5F5F5F5F5F5F5F5E2E2EFE2F5F5F5F5F5F5F5F5F5F5F5F5F5F5F5F5F5F5F5F50F5959F5F5E2F5BEE2
310
F5F5F5F5F5F5F5F5F5F5F5E2F5F5F5F5F5F5E2F5F5F5F5F5F5F5F5F5F5F5F5F5F5F5F5F5F5F5F5F5F5F5F5F5F5F5F5F5F5F5F5F5F5F5F5F5F5F5F5F5F5F5F5F5F5F559F5F5F5F5F5F5F5F5F5F5F5F5F5E2F5BEE2F5F5F5F5F5F5F5F5F5E2F5F5F5F5F5F5F5F5E2F5F5F5F5F5F5F5F5F5F5F5F5F5F5F5F5F5F5F5F5F5F5F50F
310
F5F5F5F5F5F5F5F5F5F5F5F5F5F5F5F5F5F5F5F5E2E2EFE2F5F5F5F5F5F5F5F5F5F5F5F5F5F5F5F5F5F5F5F50FF559F5E2F5F5BEE2F5F5F5F5F5F5F5F5F5F5F5E2F5F5F5E2E2E2E2E2E2E2E2F5F5F5F5F5F5F5F5F5F5F5F5F5F5F5F5F5F5F5F5F5F5F5F5F5F5F5F5F5F5F5F5E2E2E2F5F5F5F5F5F5F5F559F5F5F5F5F5F5F5
310
F5F5F5F5F5E2F5F5BEE2F5F5F5F5F5F5F5F5F5E2F5F5F5F5F5E2E20FE2E2E2E2E2F5F5F5F5F5F5F5F5F5F5F5F5F5F5F5F5F5F5F50FF5F5F5F5F5F5F5F5F5F5F5F5F5F5F5F5F5F5F5F5E2E2EFE2F5F5F5F5F5F5F5F5F5F5F5F5F5F5F5F5F5F5F5F50F5959F5E2F5F5BEE2F5F5F5F5F5F5F5E2E2E2E2E2E2E2E2E2F5F50FF5F5
310
BEE2E20FE2E2E2E2E2E2F5F5F5F5F5F5F5F5F5F5F5F5F5F5F5F5E2E2E2E2E2F5E2E2F5F5BEF5F5F5E2E2E2F5F559F5F5F5F5F5F5F5F5F5F5F5F5E2F5F5BEE2F5F5F5F5F5F5F5E2E2E2E2E2E2E2E2E2F50F0FF5F5BEE2E20FE2E2E2E2E2E2F5F5F5F5F5F5F5F5F5F5F50FF5F5F5F5F5F5F5F5F5F5F5F5F5F5F5F5F5F5F5F5E2
310
E2EFE2F5F5F5F5F5F5F5F5F5F5F5F5F5F5F5F5F5F5F5F50FF559F5E2F5F5BEE2F5F5F5E2E2E2E2E2F5F5F50FF5BEF5F5F5F50FF5F5BEF5F50FF5F5F5F5BEE2E2E2E2E2F5F5F5F5F5F5F5F5F5F5F5E2F5F5F5F5BEE2F5F5F5F5BEF5E2E2F5F5BEF5F559F5F5F5F5F5F5F5F5F5F5F5F5E2F5F5BEE2F5F5F5E2E2E2E2E2F5E2F5
310
F5F5BEF5F5F50F0FF5F5BEF5F50FF5F5F5F5BEE2E2E2E2E2F5F5F5F5F5F5F50FF5F5F5F5F5F5F5F5F5F5F5F5F5F5F5F5F5F5F5F5E2E2EFE2F5F5F5F5F5F5F5F5F5F5F5F5F5F5F5F5F5F5F5F50FF559F5E2F5F5BEE2E2E2E2E2BEF5F5F5F5F5F50FF5BEF5F5F5F50FF5F5BEF5F50FF5F5F5F5BEF5F5F5F5E2E2E2E2F5F5F5F5
310
F5F5F5F5E2F5F5F5F5BEE2F5F5F5F5BEE2E2F5F5F5BEF5F559F5F5F5F5F5F5F5F5F5F5F5F5E2F5F5BEE2E2E2E2E2BEF5F5F5F5E2F5F5F5BEF5F5F50F0FF5F5BEF5F50FF5F5F5F5BEF5F5F5F5E2E2E2E2F5F5F5F50FF5F5F5F5F5F5F5F5F5F5F5F5F5F5F5F5F5F5F5F5E2E2EFE2F5F5F5F5F5F5F5F5F5F5F5F5F5F5F5F5F5F5
310
F5F50FF559F5E2F5E2BEE2E2F5F5F5BEF5F5F5F5F5F50FF5BEF5F5F5F50FF5F5BEF5F50FF5F5F5F5BEF5F5F5F5F5F5F5E2E2E2F5F5F5F5F5F5E2F5F5F5F5BEE2F5F5F5F5BEE2F5F5F5F5BEE2E2E2F5F5F5F5F5F5F5F5F5F5F5F5E2F5E2BEE2E2F5F5F5BEF5F5F5F5E2F5F5F5BEF5F5F50F0FF5F5BEF5F50FF5F5F5F5BEF5F5
310
F5F5F5F5F5E2E2E2F5F50FF5F5F5F5F5F5F5F5F5F5F5F5F5F5F5F5F5F5F5F5E2E2EFE2F5F5F5E2F5F5F5F5F5F5F5F5F5F5F5F5F5F5F5F50F5959F5E2E2E2BEF5F5F5F5F5BEF5F5F5F5F5F50F0F0F0F0F0F0F0FF5F5BEF5F50FF5F5F5F5BEF5F5F5F5F5F5F5F5BEF5E2E2F5F5F5F5E2F5F5F5F5BEE2F5F5F5F5BEE2F5F5F5F5
310
BEE2F5BEF5F5F5F5F5F5F5F5F5F5F5F5E2E2E2BEF5F5F5F5F5BEF5F5F5F5E2F5F5F5BEF5F5F50F0FF5F5BEF5F50FF5F5F5F5BEF5F5F5F5F5F5F5F5BEF5E2E20FF5F5F5F5F5F5F5F5F5F5F5F5F5F5F5F5E2F5F5F5E2E2EFE2F5F5F5E2F5F5F5F5F5F5F5F5F5F5F5F5F5F5F5F50FF559F5E2BEBEBEBEBEBEBEBEBEBEBEBEBE0F
310
0F0F0F0F0F0F0F0F0FBEBEBEBEBE0FBEBEBEBEBEBEBEE2BEBEBEBEBEBEBEBEE2F5F5F5F5BEBEBEBEBEBEBEBEBEBEBEBEBEBEBEBEBEBEBEBEBEF5F5F5F5F5F5F5F5F5F5F5F5E2BEBEBEBEBEBEBEBEBEBEBEBEBEE20F0F0F0F0F0F0F0F0FBEBEBEBEBE0FBEBEBEBEBEBEE2E2BEBEBEBEBEBEBEBEE20FF5F5F5F5F5F5F5F5F5F5
310
F5F5F5F5F5F5E2F5F5F5E2E2EFE2F5F5F5E2F5F5F5F5F5F5F5F5F5F5F5F5F5F5F5F50F5959F5E2BEF5BEF5F5F5F5F5BEF5F5F5F5F5F5F5F5BEF5F5F5F5F5F5F5BEF5F50FF5F5F5F5BEF5F5F5F5F5F5F5F5BEF5BEE2F5F5F5F5E2F5F5F5F5BEE2F5F5F5F5BEE2F5F5F5F5BEE2F5BEF5F5F5F5F5F5F5F5F5F5F5F5E2BEF5BEF5
310
F5F5F5F5BEF5F5F5F5F5F5F5F5BEF5F5F5F5F5F5F5BEF5F50FF5F5F5F5BEF5F5F5F5F5F5F5F5BEF5BEE20FF5F5F5F5F5F5F5F5F5F5F5F5F5F5F5F5E2F5F5F5E2E2EFE2F5F5F5E2F5F5F5F5F5F5F5F5F5F5F5F5F5F5F5F50FF559F5E2BEF5F5F5F5F5F5F5BEF5F5F5F5F5F5F5F5BEF5F5F5F5F5F5F5BEF5F50FF5F5F5F5BEF5
310
F5F5F5F5F5F5F5BEF5BEE2F5F5F5F5E2F5F5F5F5BEE2F5F5F5F5BEF5E2F5F5F5BEE2F5BEF5F5F5F5F5F5F5F5F5F5F5F5E2BEF5F5F5F5F5F5F5BEF5F5F5F5F5F5F5F5BEF5F5F5F5F5F5F5BEF5F50FF5F5F5F5BEF5F5F5F5F5F5F5F5BEF5BEE20FF5F5F5F5F5F5F5F5F5F5F5F5F5F5F5F5E2F5F5F5E2E2EFE2F5F5F5E2F5F5F5
310
F5F5F5F5F5F5F5F5F5F5F5F5F50FF559F5E2BEF5F5F5F5F5F5F5BEF5F5F5F5F5F5F5F5BEF5F5F5F5F5F5F5BEF5F50FF5F5F5F5BEF5F5F5F5F5F5F5F5BEF5BEE2F5F5F5F5E2F5F5F5F5BEE2F5F5F5F5BEF5E2F5F5F5BEE2F5BEF5F5F5F5F5F5F5F5F5F5F5F5E2BEF5F5F5F5F5F5F5BEF5F5F5F5F5F5F5F5BEF5F5F5F5F5F5F5
310
BEF5F50FF5F5F5F5BEF5F5F5F5F5F5F5F5BEF5BEE20FF5F5F5F5F5F5F5F5F5F5F5F5F5F5F5F5E2F5F5F5E2E2EFE2F5F5F5E2F5F5F5F5F5F5F5F5F5F5F5F5F5F5F5F50FF559F5E2E2E2E2E2E2E2E2E2E2E2E2E2E2F5F5F5F5BEF5F5F5F5F5F5F5BEF5F50FF5F5F5F5BEF5F5F5F5F5F5F5F5BEF5BEE2F5F5F5F5E2F5F5F5F5BE
310
E2F5F5F5F5BEF5E2F5F5F5BEE2F5BEF5F5F5F5F5F5F5F5F5F5F5F5E2E2E2E2E2E2E2E2E2E2E2E2E2E2F5F5F5F5BEF5F5F5F5F5F5F5BEF5F50FF5F5F5F5BEF5F5F5F5F5F5F5F5BEF5BEE20FF5F5F5F5F5F5F5F5F5F5F5F5F5F5F5F5E2F5F5F5E2E2EFE2F5F5F5E2F5F5F5F5F5F5F5F5F5F5F5F5F5F5F5F50F5959F5F5F5F5F5
310
F5F5F5F5F5F5F5F5F5F5E2E2E2E2E2E2E2E2E2E2E2E2E2E2E20FE2F5F5F5BEF5F5F5F5F5F5F5F5BEF5E2F5F5F5F5F5E2E2E2E2E2BEE2BEBEBEBEBEF5E2F5F5F5BEE2F5BEF5F5F5F5F5F5F5F5F5F5F5F5F5F5F5F5F5F5F5F5F5F5F5F5F5F5E2E2E2E2E2E2E2E2E2E2E2E2E2E2E20FE2F5F5F5BEF5F5F5F5F5F5F5F5BEF5E2F5
310
0FF5F5F5F5F5F5F5F5F5F5F5F5F5F5F5F5E2F5F5F5E2E2EFE2F5F5F5E2F5F5F5F5F5F5F5F5F5F5F5F5F5F5F5F50FF559F5F5F5F5F5F5F5F5F5F5F5F5F5F5F5F5F5F5F5F5F5F5F5F5F5E2F5BEF5E2E2E2E2E2E2E2E2E2F5F5F5F5F5F5BEF5E2F5F5F5F5F5F5F5F5F5F5F5F5E2E2F5F5BEBEE2BEBEBEBEE2F5BEF5F5F5F5F5F5
310
F5F5F5F5F5F5F5F5F5F5F5F5F5F5F5F5F5F5F5F5F5F5F5F5F5F5F5F5F5F5E2F5BEF5E2E2E2E2E2E2E2E2E2F5F5F5F5F5F5BEF5E2F50FF5F5F5F5F5F5F5F5F5F5F5F5F5F5F5F5E2F5F5F5E2E2EFE2F5F5F5E2F5F5F5F5F5F5F5F5F5F5F5F5F5F5F5F50F5959F5F5F5F5F5F5F5F5F5F5F5F5F5F5F5F5F5F5F5F5F5F5F5F5F5F5
310
E2BEF5E20FF5E2E2E2E2F5F5E2E2E2F5F5F5BEF5E2F5F5F5F5F5F5F5F5F5F5F5F5F5F5E2E2BEF5F5E2F5F5BEE2F5BEF5F5F5F5F5F5F5F5F5F5F5F5F5F5F5F5F5F5F5F5F5F5F5F5F5F5F5F5F5F5F5F5F5F5F5F5F5E2BEF5E20FF5E2E2E2E2F5F5E2E2E2F5F5F5BEF5E2F50FF5F5F5F5F5F5F5F5F5F5F5F5F5F5F5F5E2F5F5F5
310
E2E2EFE2F5F5F5E2F5F5F5F5F5F5F5F5F5F5F5F5F5F5F5F50FF559F5F5F5F5F5F5F5F5F5F5F5F5F5F5F5F5F5F5F5F5F5F5F5F5F5F5F5E2E2F5E2E2E2E2E2E2E2E2E2E2F5E2E2E2BEF5E2F5F5F5F5F5F5F5F5F5F5F5F5F5F5F5F5E2F5F5F5E2E2BEE2F5BEF5F5F5F5F5F5F5F5F5F5F5F5F5F5F5F5F5F5F5F5F5F5F5F5F5F5F5
310
F5F5F5F5F5F5F5F5F5F5F5E2E2F5E2E2E2E2E2E2E2E2E2E2F5E2E2E2BEF5E2F50FF5F5F5F5F5F5F5F5F5F5F5F5F5F5F5F5E2F5F5F5E2E2EFE2F5F5F5E2F5F5F5F5F5F5F5F5F5F5F5F5F5F5F5F50FF559F5F5F5F5F5F5F5F5F5F5F5F5F5F5F5F5F5F5F5F5F5F5F5F5F5F5F5F5F5E2E2E2E2E2E2E2E2E2E2E2F5F5F5E2E2E2E2
310
F5F5F5F5F5F5F5F5F5F5F5F5F5F5F5F5F5F5F5F5F5F5E2E2BEBEF5F5F5F5F5F5F5F5F5F5F5F5F5F5F5F5F5F5F5F5F5F5F5F5F5F5F5F5F5F5F5F5F5F5F5F5F5F5F5F5E2E2E2E2E2E2E2E2E2E2E2F5F5F5E2E2E2E2F50FF5F5F5F5F5F5F5F5F5F5F5F5F5F5F5F5E2F5F5F5E2E2EFE2F5F5F5E2F5F5F5F5F5F5F5F5F5F5F5F5F5
310
F5F5F50FF559F5F5F5F5F5F5F5F5F5F5F5F5F5F5F5F5F5F5F5F5F5F5F5F5F5F5F5F5F5F5F5F5F5F5F5F5F5E2E2E2E2E2E2E2BEE2E2F5F5F5F5F5F5F5F5F5F5F5F5F5F5F5F5F5F5F5F5F5F5F5F5E2E2F5F5F5F5F5F5F5F5F5F5F5F5F5F5F5F5F5F5F5F5F5F5F5F5F5F5F5F5F5F5F5F5F5F5F5F5F5F5F5F5F5F5F5F5F5F5F5F5
310
E2E2E2E2E2E2E2BEE2E2F50FF5F5F5F5F5F5F5F5F5F5F5F5F5F5F5F5E2F5F5F5E2E2EFE2F5F5F5E2F5F5F5F5F5F5F5F5F5F5F5F5F5F5F5F50F5959F5F5F5F5F5F5F5F5F5F5F5F5F5F5F5F5F5F5F5F5F5F5F5F5F5F5F5F5282828282828282828282828F5F5F5F5E2E2E2F5F5F5F5F5F5F5F5F5F5F5F5F5F5F5F5F5F5F5F5F5
310
F5F5F5F559F5F5F5F5F5F5F5F5F5F5F5F5F5F5F5F5F5F5F5F5F5F5F5F5F5F5F5F5F5F5F5F5F5F5F5F5F5F5F5F5F5F5F5F5F5F5F5F5F5F5F5F5F5F5F5E2E2E2F50FF5F5F5F5F5F5F5F5F5F5F5F5F5F5F5F5E2F5F5F5E2E2EFE2F5F5F5E2F5F5F5F5F5F5F5F5F5F5F5F5F5F5F5F50FF559F5F5F5F5F5F5F5F5F5F5F5F5F5F5F5
310
F5F5F5F5F5F5F5F5F5F5F5F5F528282828282828282828282828F5F5F5F5F5F5F5F5F5F5F5F5F5F5F5F5F5F5F5F5F5F5F5F5F5F5F5F5F5F5F559F5F5F5F5F5F5F5E2E2E2E2E2E2E2E2E2E2F5F5F5F5F5F5F5F5F5F5F5F5F5F5F5F5F5F5F5F5F5F5F5F5F5F5F5F5F5F5F5F5F5F5F5F5F5F5F5F5F5F50FF5F5F5F5F5F5F5F5F5
310
F5F5F5F5F5F5F5E2F5F5F5E2E2EFE2F5F5F5E2F5F5F5F5F5F5F5F5F5F5F5F5F5F5F5F50F5959F5F5F5F5F5F5F5F5F5F5F5F5F5F5F5F5F5F5F5F5F5F5F5F5F5F5F5F528282828282828282828F5F5F5F5F5F5F5F5F5F5F5F5F5F5F5F5F5F5F5F5F5F5F5F5F5F5F5F5F5F5F5F5F5F559F5F5F5F5F5F5F5E2F5F5F5F5BEF5F5F5
310
F5E2F5F5F5F5F5F5F5F5F5F5F5F5F5F5F5F5F5F5F5F5F5F5F5F5F5F5F5F5F5F5F5F5F5F5F5F5F5F5F5F5F50FF5F5F5F5F5F5F5F5F5F5F5F5F5F5F5F5E2F5F5F5E2E2EFE2F5F5F5E2F5F5F5F5F5F5F5F5F5F5F5F5F5F5F5F50FF559F5F5F5F5F5F5F5F5F5F5F5F5F5F5F5F5F5F5F5F5F5F5F5F5F5F5F5F52828282828282828
310
2828F5F5F5F5F5F5F5F5F5F5F5F5F5F5F5F5F5F5F5F5F5F5F5F5F5F5F5F5F5F5F5F5F5F559F5F5F5F5F5F5E2E2F5F5F5F5BEF5F5F5F5E2F5F5F5F5F5F5F5F5F5F5F5F5F5F5F5F5F5F5F5F5F5F5F5F5F5F5F5F5F5F5F5F5F5F5F5F5F5F5F5F5F50FF5F5F5F5F5F5F5F5F5F5F5F5F5F5F5F5E2F5F5F5E2E2EFE2F5F5F5E2F5F5
310
F5F5F5F5F5F5F5F5F5F5F5F5F5F50FF559F5F5F5F5F5F5F5F5F5F5F5F5F5F5F5F5F5F5F5F5F5F5F5F5F5F5F5F5F5F5F5F5F5F5F5F5F5F5F5F5F5F5F5F5F5F5F5F5F5F5F5F5F5F5F5F5F5F5F5F5F5F5F5F5F5F5F5F5F5F5F5F559F5F5F5F5F5F5E2F5F5F5F5F5BEF5F5F5F5E2F5F5F5F5F5F5F5F5F5F5F5F5F5F5F5F5F5F5F5
310
F5F5F5F5F5F5F5F5F5F5F5F5F5F5F5F5F5F5F5F5F5F50FF5F5F5F5F5F5F5F5F5F5F5F5F5F5F5F5E2F5F5F5E2E2EFE2F5F5F5F5F5F5F5F5F5F5F5F5F5F5F5F5F5F5F5F50FF559285959595928595959F5F5F5F5F5F5F5F5F5F5F5F5F5F5F5F5F5F5F5F5F5F5F5F5F5F5F5F5F5F5F5F5F5F5F5F5F5F5F5F5F5F5F5F5F5F5F5F5
310
F5F5F5F5F5F5F5F5F5F5F5F5F5F5F559F5F5F5F5F5F5E2F5F5F5F5F5BEF5F5F5F5E2F5F5F5F5F5F5F5F5F5F5F5F5F5F5F5F5F5F5F5F5F5F5F5F5F5F5F5F5F5F5F5F5F5F5F5F5F5F5F5F5F50FF5F5F5F5F5F5F5F5F5F5F5F5F5F5F5F5F5F5F5F5E2E2EFE2F5F5F5F5F5F5F5F5F5F5F5F5F5F5F5F5F5F5F5F50F595959595959
310
595959595959595959595959595959595959595959595959595959595959595959595959595959595959595959595959595959595959595959595959595959595959595959F5F5F5F5F5F5BEBEBEBEBEBEBEBEBEBEBEBEF5F5F5F5F5F5F5F5F5F5F5F5F5F5F5F5F5F5F5F5F5F5F5F5F5F5F5F5F5F5F5F5F5F5F5F5F5F5F5F5
310
F50FF5F5F5F5F5F5F5F5F5F5F5F5F5F5F5F5F5F5F5F5E2E2EFE2F5F5F5F5F5F5F5F5F5F5F5F5F5F5F5F5F5F5F5F50FF559F5F5F5F559F5F5F5F5F559F5F5F5F5F559F5F5F5F559F5F5F5F5F559F5F5F5F5F559F5F5F5F559F5F5F5F5F559F5F5F5F5F559F5F5F5F559F5F5F5F5F559F5F5F5F5F559F5F5F5F559F5F5F5F5F5
310
F5E2F5F5F5F5F5BEF5F5F5F5E2F5F5F5F5F5F5F5F5F5F5F5F5F5F5F5F5F5F5F5F5F5F5F5F5F5F5F5F5F5F5F5F5F5F5F5F5F5F5F5F5F50FF5F5F5F5F5F5F5F5F5F5F5F5F5F5F5F5F5F5F5F5E2E2EFE2F5F5F5F5F5F5F5F5F5F5F5F5F5F5F5F5F5F5F5F50FF5F5F5F5F5F5F5F5F5F5F5F5F5F5F5F5F5F5F5F5F5F5F5F5F5F5F5
310
F5F5F5F5F5F5F5F5F5F5F5F5F5F5F5F5F5F5F5F5F5F5F5F5F5F5F5F5F5F5F5F5F5F5F5F5F5F5F5F5F5F5F5F5F5F5F5F5F5F5F5F5F5F5E2F5F5F5F5F5BEF5F5F5F5E2F5F5F5F5F5F5F5F5F5F5F5F5F5F5F5F5F5F5F5F5F5F5F5F5F5F5F5F5F5F5F5F5F5F5F5F5F5F5F5F5F50FF5F5F5F5F5F5F5F5F5F5F5F5F5F5F5F5F5F5F5
310
F5E2E2EFE2F5F5F5F5F5F5F5F5F5F5F5F5F5F5F5F5F5F5F5F50FF5F5F5F5F5F5F5F5F5F5F5F5F5F5F5F5F5F5F5F5F5F5F5F5F5F5F5F5F5F5F5F5F5F5F5F5F5F5F5F5F5F5F5F5F5F5F5F5F5F5F5F5F5F5F5F5F5F5F5F5F5F5F5F5F5F5F5F5F5F5F5F5F5F5F5F5F5F5F5F5F5E2F5F5F5F5F5BEF5F5F5F5E2F5F5F5F5F5F5F5F5
310
F5F5F5F5F5F5F5F5F5F5F5F5F5F5F5F5F5F5F5F5F5F5F5F5F5F5F5F5F5F5F5F5F50FF5F5F5F5F5F5F5F5F5F5F5F5F5F5F5F5F5F5F5F5E2E2EFE2F5F5F5F5F5F5F5F5F5F5F5F5F5F5F5F5F5F5F5F50FF5F5F5F5F5F5F5F5F5F5F5F5F5F5F5F5F5F5F5F5F5F5F5F5F5F5F5F5F5F5F5F5F5F5F5F5F5F5F5F5F5F5F5F5F5F5F5F5
310
F5F5F5F5F5F5F5F5F5F5F5F5F5F5F5F5F5F5F5F5F5F5F5F5F5F5F5F5F5F5F5F5F5E2F5F5F5F5F5BEF5F5F5F5E2F5F5F5F5F5F5F5F5F5F5F5F5F5F5F5F5F5F5F5F5F5F5F5F5F5F5F5F5F5F5F5F5F5F5F5F5F5F5F5F5F50FF5F5F5F5F5F5F5F5F5F5F5F5F5F5F5F5F5F5F5F5E2E2EFE2F5F5F5F5F5F5F5F5F5F5F5F5F5F5F5F5
310
F5F5F5F50FF5F5F5F5F5F5F5F5F5F5F5F5F5F5F5F5F5F5F5F5F5F5F5F5F5F5F5F5F5F5F5F5F5F5F5F5F5F5F5F5F5F5F5F5F5F5F5F5F5F5F5F5F5F5F5F5F5F5F5F5F5F5F5F5F5F5F5F5F5F5F5F5F5F5F5F5F5F5F5F5F5BEE2BEBEBEBEBEBEBEBEBEE2F5F5F5F5F5F5F5F5F5F5F5F5F5F5F5F5F5F5F5F5F5F5F5F5F5F5F5F5F5
310
F5F5F5F5F5F5F5F5F5F5F5F50FF5F5F5F5F5F5F5F5F5F5F5F5F5F5F5F5F5F5F5F5E2E2EFE2F5F5F5F5F5F5F5F5F5F5F5F5F5F5F5F5F5F5F5F50FF5F5F5F5F5F5F5F5F5F5F5F5F5F5F5F5F5F5F5F5F5F5F5F5F5F5F5F5F5F5F5F5F5F5F5F5F5F5F5F5F5F5F5F5F5F5F5F5F5F5F5F5F5F5F5F5F5F5F5F5F5F5F5F5F5F5F5F5F5
310
F5F5F5F5F5F5F5F5F5F5F5F5F5F5E2E2F5F5BEF5F5E2E2F5F5F5F5F5F5F5F5F5F5F5F5F5F5F5F5F5F5F5F5F5F5F5F5F5F5F5F5F5F5F5F5F5F5F5F5F5F5F5F5F5F50FF5F5F5F5F5F5F5F5F5F5F5F5F5F5F5F5F5F5F5F5E2E2EFE2F5F5F5F5F5F5F5F5F5F5F5F5F5F5F5F5F5F5F5F50FF5F5F5F5F5F5F5F5F5F5F5F5F5F5F5F5
310
F5F5F5F5F5F5F5F5F5F5F5F5F5F5F5F5F5F5F5F5F5F5F5F5F5F5F5F5F5F5F5F5F5F5F5F5F5F5F5F5F5F5F5F5F5F5F5F5F5F5F5F5F5F5F5F5F5F5F5F5F5F5F5F5F5F5F5F5F5E2E2BEE2E2F5F5F5F5F5F5F5F5F5F5F5F5F5F5F5F5F5F5F5F5F5F5F5F5F5F5F5F5F5F5F5F5F5F5F5F5F5F5F5F5F5F5F5F50FF5F5F5F5F5F5F5F5
310
F5F5F5F5F5F5F5F5F5F5F5F5E2E2EFE2F5F5F5E2F5F5F5F5F5F5F5F5F5F5F5F5F5F5F5F50FF5F5F5F5F5F5F5F5F5F5F5F5F5F5F5F5F5F5F5F5F5F5F5F5F5F5F5F5F5F5F5F5F5F5F5F5F5F5F5F5F5F5F5F5F5F5F5F5F5F5F5F5F5F5F5F5F5F5F5F5F5F5F5F5F5F5F5F5F5F5F5F5F5F5F5F5F5F5F5F5F5F5F5F5F5F5F5E2F5F5
310
F5F5F5F5F5F5F5F5F5F5F5F5F5F5F5F5F5F5F5F5F5F5F5F5F5F5F5F5F5F5F5F5F5F5F5F5F5F5F5F5F5F5F5F50FF5F5F5F5F5F5F5F5F5F5F5F5F5F5F5F5E2F5F5F5E2E2EFE2F5F5F5E2F5F5F5F5F5F5F5F5F5F5F5F5F5F5F5F50FF5F5F5F5F5F5F5F5F5F5F5F5F5F5F5F5F5F5F5F5F5F5F5F5F5F5F5F5F5F5F5F5F5F5F5F5F5
310
F5F5F5F5F5F5F5F5F5F5F5F5F5F5F5F5F5F5F5F5F5F5F5F5F5F5F5F5F5F5F5F5F5F5F5F5F5F5F5F5F5F5F5F5F5F5F5F5F5F5F5F5F5F5F5F5F5F5F5F5F5F5F5F5F5F5F5F5F5F5F5F5F5F5F5F5F5F5F5F5F5F5F5F5F5F5F5F5F5F5F5F5F5F5F5F5F50FF5F5F5F5F5F5F5F5F5F5F5F5F5F5F5F5E2F5F5F5E2E2EFE2F5F5F5E2F5
310
F5F5F5F5F5F5F5F5F5F5F5F5F5F5F50FF5F5F5F5F5F5F5F5F5F5F5F5F5F5F5F5F5F5F5F5F5F5F5F5F5F5F5F5F5F5F5F5F5F5F5F5F5F5F5F5F5F5F5F5F5F5F5F5F5F5F5F5F5F5F5F5F5F5F5F5F5F5F5F5F5F5F5F5F5F5F5F5F5F5F5F5F5F5F5F5F5F5F5F5F5F5F5F5F5F5F5F5F5F5F5F5F5F5F5F5F5F5F5F5F5F5F5F5F5F5F5
310
F5F5F5F5F5F5F5F5F5F5F5F5F5F5F5F5F5F5F5F5F5F5F50FF5F5F5F5F5F5F5F5F5F5F5F5F5F5F5F5E2F5F5F5E2E2EFE2F5F5F5E2F5F5F5F5F5F5F5F5F5F5F5F5F5F5F5F50FF5F5F5F5F5F5F5F5F5F5F5F5F5F5F5F5F5F5F5F5F5F5F5F5F5F5F5F5F5F5F5F5F5F5F5F5F5F5F5F5F5F5F5F5F5F5F5F5F5F5F5F5F5F5F5F5F5F5
310
F5F5F5F5F5F5F5F5F5F5F5F5F5F5F5F5F5F5F5F5F5F5F5F5F5F5F5F5F5F5F5F5F5F5F5F5F5F5F5F5F5F5F5F5F5F5F5F5F5F5F5F5F5F5F5F5F5F5F5F5F5F5F5F5F5F5F5F5F5F5F5F5F5F5F5F50FF5F5F5F5F5F5F5F5F5F5F5F5F5F5F5F5E2F5F5F5E2E2EFE2F5F5F5E2F5F5F5F5F5F5F5F5F5F5F5F5F5F5F5F50FF5F5F5F5F5
310
F5F5F5F5F5F5F5F5F5F5F5F5F5F5F5F5F5F5F5F5F5F5F5F5F5F5F5F5F5F5F5F5F5F5F5F5F5F5F5F5F5F5F5F5F5F5F5F5F5F5F5F5F5F5F5F5F5F5F5F5F5F5F5F5F5F5F5F5F5F5F5F5F5F5F5F5F5F5F5F5F5F5F5F5F5F5F5F5F5F5F5F5F5F5F5F5F5F5F5F5F5F5F5F5F5F5F5F5F5F5F5F5F5F5F5F5F5F5F5F5F5F5F5F5F5F5F5
310
F5F50FF5F5F5F5F5F5F5F5F5F5F5F5F5F5F5F5E2F5F5F5E2E2EFE2F5F5F5E2F5F5F5F5F5F5F5F5F5F5F5F5F5F5F5F50FF5F5F5F5F5F5F5F5F5F5F5F5F5F5F5F5F5F5F5F5F5F5F5F5F5F5F5F5F5F5F5F5F5F5F5F5F5F5F5F5F5F5F5F5F5F5F5F5F5F5F5F5F5F5F5F5F5F5F5F5F5F5F5F5F5F5F5F5F5F5F5F5F5F5F5F5F5F5F5
310
F5F5F5F5F5F5F5F5F5F5F5F5F5F5F5F5F5F5F5F5F5F5F5F5F5F5F5F5F5F5F5F5F5F5F5F5F5F5F5F5F5F5F5F5F5F5F5F5F5F5F5F5F5F5F50FF5F5F5F5F5F5F5F5F5F5F5F5F5F5F5F5E2F5F5F5E2E2EFE2F5F5F5E2F5F5F5F5F5F5F5F5F5F5F5F5F5F5F5F50FF5F5F5F5F5F5F5F5F5F5F5F5F5F5F5F5F5F5F5F5F5F5F5F5F5F5
310
F5F5F5F5F5F5F5F5F5F5F5F5F5F5F5F5F5F5F5F5F5F5F5F5F5F5F5F5F5F5F5F5F5F5F5F5F5F5F5F5F5F5F5F5F5F5F5F5F5F5F5F5F5F5F5F5F5F5F5F5F5F5F5F5F5F5F5F5F5F5F5F5F5F5F5F5F5F5F5F5F5F5F5F5F5F5F5F5F5F5F5F5F5F5F5F5F5F5F5F5F5F5F5F5F5F5F5F50FF5F5F5F5F5F5F5F5F5F5F5F5F5F5F5F5E2F5
310
F5F5E2E2EFE2F5F5F5E2F5F5F5F5F5F5F5F5F5F5F5F5F5F5F5F50FF5F5F5F5F5F5F5F5F5F5F5F5F5F5F5F5F5F5F5F5F5F5F5F5F5F5F5F5F5F5F5F5F5F5F5F5F5F5F5F5F5F5F5F5F5F5F5F5F5F5F5F5F5F5F5F5F5F5F5F5F5F5F5F5F5F5F5F5F5F5F5F5F5F5F5F5F5F5F5F5F5F5F5F5F5F5F5F5F5F5F5F5F5F5F5F5F5F5F5F5
310
F5F5F5F5F5F5F5F5F5F5F5F5F5F5F5F5F5F5F5F5F5F5F5F5F5F5F5F5F5F5F5F5F5F50FF5F5F5F5F5F5F5F5F5F5F5F5F5F5F5F5E2F5F5F5E2E2EFE2F5F5F5E2F5F5F5F5F5F5F5F5F5F5F5F5F5F5F5F50FF5F5F5F5F5F5F5F5F5F5F5F5F5F5F5F5F5F5F5F5F5F5F5F5F5F5F5F5F5F5F5F5F5F5F5F5F5F5F5F5F5F5F5F5F5F5F5
310
F5F5F5F5F5F5F5F5F5F5F5F5F5F5F5F5F5F5F5F5F5F5F5F5F5F5F5F5F5F5F5F5F5F5F5F5F5F5F5F5F5F5F5F5F5F5F5F5F5F5F5F5F5F5F5F5F5F5F5F5F5F5F5F5F5F5F5F5F5F5F5F5F5F5F5F5F5F5F5F5F5F5F5F5F5F5F50FF5F5F5F5F5F5F5F5F5F5F5F5F5F5F5F5E2F5F5F5E2E2EFE2F5F5F5E2F5F5F5F5F5F5F5F5F5F5F5
310
F5F5F5F5F50FF5F5F5F5F5F5F5F5F5F5F5F5F5F5F5F5F5F5F5F5F5F5F5F5F5F5F5F5F5F5F5F5F5F5F5F5F5F5F5F5F5F5F5F5F5F5F5F5F5F5F5F5F5F5F5F5F5F5F5F5F5F5F5F5F5F5F5F5F5F5F5F5F5F5F5F5F5F5F5F5F5F5F5F5F5F5F5F5F5F5F5F5F5F5F5F5F5F5F5F5F5F5F5F5F5F5F5F5F5F5F5F5F5F5F5F5F5F5F5F5F5
310
F5F5F5F5F5F5F5F5F5F5F5F5F50FF5F5F5F5F5F5F5F5F5F5F5F5F5F5F5F5E2F5F5F5E2E2EFE2F5F5F5E2F5F5F5F5F5F5F5F5F5F5F5F5F5F5F5F50FF5F5F5F5F5F5F5F5F5F5F5F5F5F5F5F5F5F5F5F5F5F5F5F5F5F5F5F5F5F5F5F5F5F5F5F5F5F5F5F5F5F5F5F5F5F5F5F5F5F5F5F5F5F5F5F5F5F5F5F5F5F5F5F5F5F5F5F5
310
F5F5F5F5F5F5F5F5F5F5F5F5F5F5F5F5F5F5F5F5F5F5F5F5F5F5F5F5F5F5F5F5F5F5F5F5F5F5F5F5F5F5F5F5F5F5F5F5F5F5F5F5F5F5F5F5F5F5F5F5F5F5F5F5F5F50FF5F5F5F5F5F5F5F5F5F5F5F5F5F5F5F5E2F5F5F5E2E2EFE2F5F5F5E2F5F5F5F5F5F5F5F5F5F5F5F5F5F5F5F50FF5F5F5F5F5F5F5F5F5F5F5F5F5F5F5
310
F5F5F5F5F5F5F5F5F5F5F5F5F5F5F5F5F5F5F5F5F5F5F5F5F5F5F5F5F5F5F5F5F5F5F5F5F5F5F5F5F5F5F5F5F5F5F5F5F5F5F5F5F5F5F5F5F5F5F5F5F5F5F5F5F5F5F5F5F5F5F5F5F5F5F5F5F5F5F5F5F5F5F5F5F5F5F5F5F5F5F5F5F5F5F5F5F5F5F5F5F5F5F5F5F5F5F5F5F5F5F5F5F5F5F5F5F5F5F50FF5F5F5F5F5F5F5
310
F5F5F5F5F5F5F5F5F5E2F5F5F5E2E2EFE2F5F5F5E2F5F5F5F5F5F5F5F5F5F5F5F5F5F5F5F50FF5F5F5F5F5F5F5F5F5F5F5F5F5F5F5F5F5F5F5F5F5F5F5F5F5F5F5F5F5F5F5F5F5F5F5F5F5F5F5F5F5F5F5F5F5F5F5F5F5F5F5F5F5F5F5F5F5F5F5F5F5F5F5F5F5F5F5F5F5F5F5F5F5F5F5F5F5F5F5F5F5F5F5F5F5F5F5F5F5
310
F5F5F5F5F5F5F5F5F5F5F5F5F5F5F5F5F5F5F5F5F5F5F5F5F5F5F5F5F5F5F5F5F5F5F5F5F5F5F5F5F5F5F5F5F50FF5F5F5F5F5F5F5F5F5F5F5F5F5F5F5F5E2F5F5F5E2E2EFE2F5F5F5E2F5F5F5F5F5F5F5F5F5F5F5F5F5F5F5F50FF5F5F5F5F5F5F5F5F5F5F5F5F5F5F5F5F5F5F5F5F5F5F5F5F5F5F5F5F5F5F5F5F5F5F5F5
310
F5F5F5F5F5F5F5F5F5F5F5F5F5F5F5F5F5F5F5F5F5F5F5F5F5F5F5F5F5F5F5F5F5F5F5F5F5F5F5F5F5F5F5F5F5F5F5F5F5F5F5F5F5F5F5F5F5F5F5F5F5F5F5F5F5F5F5F5F5F5F5F5F5F5F5F5F5F5F5F5F5F5F5F5F5F5F5F5F5F5F5F5F5F5F5F5F5F50FF5F5F5F5F5F5F5F5F5F5F5F5F5F5F5F5E2F5F5F5E2E2EFE2F5F5F5E2
310
F5F5F5F5F5F5F5F5F5F5F5F5F5F5F5F50FF5F5F5F5F5F5F5F5F5F5F5F5F5F5F5F5F5F5F5F5F5F5F5F5F5F5F5F5F5F5F5F5F5F5F5F5F5F5F5F5F5F5F5F5F5F5F5F5F5F5F5F5F5F5F5F5F5F5F5F5F5F5F5F5F5F5F5F5F5F5F5F5F5F5F5F5F5F5F5F5F5F5F5F5F5F5F5F5F5F5F5F5F5F5F5F5F5F5F5F5F5F5F5F5F5F5F5F5F5F5
310
F5F5F5F5F5F5F5F5F5F5F5F5F5F5F5F5F5F5F5F5F5F5F5F50FF5F5F5F5F5F5F5F5F5F5F5F5F5F5F5F5E2F5F5F5E2E2EFE2F5F5F5E2F5F5F5F5F5F5F5F5F5F5F5F5F5F5F5F50FF5F5F5F5F5F5F5F5F5F5F5F5F5F5F5F5F5F5F5F5F5F5F5F5F5F5F5F5F5F5F5F5F5F5F5F5F5F5F5F5F5F5F5F5F5F5F5F5F5F5F5F5F5F5F5F5F5
310
F5F5F5F5F5F5F5F5F5F5F5F5F5F5F5F5F5F5F5F5F5F5F5F5F5F5F5F5F5F5F5F5F5F5F5F5F5F5F5F5F5F5F5F5F5F5F5F5F5F5F5F5F5F5F5F5F5F5F5F5F5F5F5F5F5F5F5F5F5F5F5F5F5F5F5F5F50FF5F5F5F5F5F5F5F5F5F5F5F5F5F5F5F5E2F5F5F5E2E2EFE2F5F5F5E2F5F5F5F5F5F5F5F5F5F5F5F5F5F5F5F50FF5F5F5F5
310
F5F5F5F5F5F5F5F5F5F5F5F5F5F5F5F5F5F5F5F5F5F5F5F5F5F5F5F5F5F5F5F5F5F5F5F5F5F5F5F5F5F5F5F5F5F5F5F5F5F5F5F5F5F5F5F5F5F5F5F5F5F5F5F5F5F5F5F5F5F5F5F5F5F5F5F5F5F5F5F5F5F5F5F5F5F5F5F5F5F5F5F5F5F5F5F5F5F5F5F5F5F5F5F5F5F5F5F5F5F5F5F5F5F5F5F5F5F5F5F5F5F5F5F5F5F5F5
310
F5F5F50FF5F5F5F5F5F5F5F5F5F5F5F5F5F5F5F5E2F5F5F5E2E2EFE2F5F5F5F5F5F5F5F5F5F5F5F5F5F5F5F5F5F5F5F50FF5F5F5F5F5F5F5F5F5F5F5F5F5F5F5F5F5F5F5F5F5F5F5F5F5F5F5F5F5F5F5F5F5F5F5F5F5F5F5F5F5F5F5F5F5F5F5F5F5F5F5F5F5F5F5F5F5F5F5F5F5F5F5F5F5F5F5F5F5F5F5F5F5F5F5F5F5F5
310
F5F5F5F5F5F5F5F5F5F5F5F5F5F5F5F5F5F5F5F5F5F5F5F5F5F5F5F5F5F5F5F5F5F5F5F5F5F5F5F5F5F5F5F5F5F5F5F5F5F5F5F5F5F5F5F50FF5F5F5F5F5F5F5F5F5F5F5F5F5F5F5F5F5F5F5F5E2E2EFE2F5F5F5F5F5F5F5F5F5F5F5F5F5F5F5F5F5F5F5F50FF5F5F5F5F5F5F5F5F5F5F5F5F5F5F5F5F5F5F5F5F5F5F5F5F5
310
F5F5F5F5F5F5F5F5F5F5F5F5F5F5F5F5F5F5F5F5F5F5F5F5F5F5F5F5F5F5F5F5F5F5F5F5F5F5F5F5F5F5F5F5F5F5F5F5F5F5F5F5F5F5F5F5F5F5F5F5F5F5F5F5F5F5F5F5F5F5F5F5F5F5F5F5F5F5F5F5F5F5F5F5F5F5F5F5F5F5F5F5F5F5F5F5F5F5F5F5F5F5F5F5F5F5F5F5F50FF5F5F5F5F5F5F5F5F5F5F5F5F5F5F5F5F5
310
F5F5F5E2E2EFE2F5F5F5F5F5F5F5F5F5F5F5F5F5F5F5F5F5F5F5F50FF5F5F5F5F5F5F5F5F5F5F5F5F5F5F5F5F5F5F5F5F5F5F5F5F5F5F5F5F5F5F5F5F5F5F5F5F5F5F5F5F5F5F5F5F5F5F5F5F5F5F5F5F5F5F5F5F5F5F5F5F5F5F5F5F5F5F5F5F5F5F5F5F5F5F5F5F5F5F5F5F5F5F5F5F5F5F5F5F5F5F5F5F5F5F5F5F5F5F5
310
F5F5F5F5F5F5F5F5F5F5F5F5F5F5F5F5F5F5F5F5F5F5F5F5F5F5F5F5F5F5F5F5F5F5F50FF5F5F5F5F5F5F5F5F5F5F5F5F5F5F5F5F5F5F5F5E2E2EFE2F5F5F5F5F5F5F5F5F5F5F5F5F5F5F5F5F5F5F5F50FF5F5F5F5F5F5F5F5F5F5F5F5F5F5F5F5F5F5F5F5F5F5F5F5F5F5F5F5F5F5F5F5F5F5F5F5F5F5F5F5F5F5F5F5F5F5
310
F5F5F5F5F5F5F5F5F5F5F5F5F5F5F5F5F5F5F5F5F5F5F5F5F5F5F5F5F5F5F5F5F5F5F5F5F5F5F5F5F5F5F5F5F5F5F5F5F5F5F5F5F5F5F5F5F5F5F5F5F5F5F5F5F5F5F5F5F5F5F5F5F5F5F5F5F5F5F5F5F5F5F5F5F5F5F5F50FF5F5F5F5F5F5F5F5F5F5F5F5F5F5F5F5F5F5F5F5E2E2EFE2F5F5F5F5F5F5F5F5F5F5F5F5F5F5
310
F5F5F5F5F5F50F0F0F0F0F0F0F0F0F0F0F0F0F0F0F0F0F0F0F0F0F0F0F0F0F0F0F0F0F0F0F0F0F0F0F0F0F0F0F0F0F0F0F0F0F0F0F0F0F0F0F0F0F0F0F0F0F0F0F0F0F0F0F0F0F0F0F0F0F0F0F0F0F0F0F0F0F0F0F0F0F0F0F0F0F0F0F0F0F0F0F0F0F0F0F0F0F0F0F0F0F0F0F0F0F0F0F0F0F0F0F0F0F0F0F0F0F0F0F0F0F
310
0F0F0F0F0F0F0F0F0F0F0F0F0F0F0FF5F5F5F5F5F5F5F5F5F5F5F5F5F5F5F5F5F5F5F5E2E2EFE2F5F5F5F5F5F5F5F5F5F5F5F5F5F5F5F5F5F5F5F5F5F5F5F5F5F5F5F5F5F5F5F5F5F5F5F5F5F5F5F5F5F5F5F5F5F5F5F5F5F5F5F5F5F5F5F5F5F5F5F5F5F5F5F5F5F5F5F5F5F5F5F5F5F5F5F5F5F5F5F5F5F5F5F5F5F5F5F5
310
F5F5F5F5F5F5F5F5F5F5F5F5F5F5F5F5F5F5F5F5F5F5F5F5F5F5F5F5F5F5F5F5F5F5F5F5F5F5F5F5F5F5F5F5F5F5F5F5F5F5F5F5F5F5F5F5F5F5F5F5F5F5F5F5F5F5F5F5F5F5F5F5F5F5F5F5F5F5F5F5F5F5F5F5F5F5F5F5E2E2EFE2F5F5F5F5F5F5F5F5F5F5F5F5F5F5F5F5F5F5F5F5F5F5F5F5F5F5F5F5F5F5F5F5F5F5F5
310
F5F5F5F5F5F5F5F5F5F5F5F5F5F5F5F5F5F5F5F5F5F5F5F5F5F5F5F5F5F5F5F5F5F5F5F5F5F5F5F5F5F5F5F5F5F5F5F5F5F5F5F5F5F5F5F5F5F5F5F5F5F5F5F5F5F5F5F5F5F5F5F5F5F5F5F5F5F5F5F5F5F5F5F5F5F5F5F5F5F5F5F5F5F5F5F5F5F5F5F5F5F5F5F5F5F5F5F5F5F5F5F5F5F5F5F5F5F5F5F5F5F5F5F5F5F5F5
310
F5F5F5F5F5F5F5F5F5F5F5F5F5F5E2E2EFE2F5F5F5F5F5F5F5F5F5F5F5F5F5F5F5F5F5F5F5F5F5F5F5F5F5F5F5F5F5F5F5F5F5F5F5F5F5F5F5F5F5F5F5F5F5F5F5F5F5F5F5F5F5F5F5F5F5F5F5F5F5F5F5F5F5F5F5F5F5F5F5F5F5F5F5F5F5F5F5F5F5F5F5F5F5F5F5F5F5F5F5F5F5F5F5F5F5F5F5F5F5F5F5F5F5F5F5F5F5
310
F5F5F5F5F5F5F5F5F5F5F5F5F5F5F5F5F5F5F5F5F5F5F5F5F5F5F5F5F5F5F5F5F5F5F5F5F5F5F5F5F5F5F5F5F5F5F5F5F5F5F5F5F5F5F5F5F5F5F5F5F5F5F5F5F5F5F5E2E2EFE2F5F5F5F5F5F5F5F5F5F5F5F5F5F5F5F5F5F5F5F5F5F5F5F5F5F5F5F5F5F5F5F5F5F5F5F5F5F5F5F5F5F5F5F5F5F5F5F5F5F5F5F5F5F5F5F5
310
F5F5F5F5F5F5F5F5F5F5F5F5F5F5F5F5F5F5F5F5F5F5F5F5F5F5F5F5F5F5F5F5F5F5F5F5F5F5F5F5F5F5F5F5F5F5F5F5F5F5F5F5F5F5F5F5F5F5F5F5F5F5F5F5F5F5F5F5F5F5F5F5F5F5F5F5F5F5F5F5F5F5F5F5F5F5F5F5F5F5F5F5F5F5F5F5F5F5F5F5F5F5F5F5F5F5F5F5F5F5F5F5F5F5F5F5F5F5F5F5E2E2EFE2F5F5F5
310
E2F5F5F5F5F5F5F5F5F5F5F5F5F5F5F5F5F5F5F5F5F5F5F5F5F5F5F5F5F5F5F5F5F5F5F5F5F5F5F5F5F5F5F5F5F5F5F5F5F5F5F5F5F5F5F5F5F5F5F5F5F5F5F5F5F5F5F5F5F5F5F5F5F5F5F5F5F5F5F5F5F5F5F5F5F5F5F5F5F5F5F5F5F5F5F5F5F5F5F5F5F5F5F5F5F5F5F5F5F5F5F5F5F5F5F5F5F5F5F5F5F5F5F5F5F5F5
310
F5F5F5F5F5F5F5F5F5F5F5F5F5F5F5F5F5F5F5F5F5F5F5F5F5F5F5F5F5F5F5F5F5F5F5F5F5F5F5F5F5F5E2F5F5F5E2E2EFE2F5F5F5E2F5F5F5F5F5F5F5F5F5F5F5F5F5F5F5F5F5F5F5F5F5F5F5F5F5F5F5F5F5F5F5F5F5F5F5F5F5F5F5F5F5F5F5F5F5F5F5F5F5F5F5F5F5F5F5F5F5F5F5F5F5F5F5F5F5F5F5F5F5F5F5F5F5
310
F5F5F5F5F5F5F5F5F5F5F5F5F5F5F5F5F5F5F5F5F5F5F5F5F5F5F5F5F5F5F5F5F5F5F5F5F5F5F5F5F5F5F5F5F5F5F5F5F5F5F5F5F5F5F5F5F5F5F5F5F5F5F5F5F5F5F5F5F5F5F5F5F5F5F5F5F5F5F5F5F5F5F5F5F5F5F5F5F5F5F5F5F5F5F5E2F5F5F5E2E2EFE2F5F5F5E2F5F5F5F5F5F5F5F5F5F5F5F5F5F5F5F5F5F5F5F5
310
F5F5F5F5F5F5F5F5F5F5F5F5F5F5F5F5F5F5F5F5F5F5F5F5F5F5F5F5F5F5F5F5F5F5F5F5F5F5F5F5F5F5F5F5F5F5F5F5F5F5F5F5F5F5F5F5F5F5F5F5F5F5F5F5F5F5F5F5F5F5F5F5F5F5F5F5F5F5F5F5F5F5F5F5F5F5F5F5F5F5F5F5F5F5F5F5F5F5F5F5F5F5F5F5F5F5F5F5F5F5F5F5F5F5F5F5F5F5F5F5F5F5F5F5F5F5F5
310
F5F5F5F5F5F5F5F5F5F5F5F5F5F5F5F5F5F5F5F5F5E2F5F5F5E2E2EFE2F5F5F5E2F5F5F5F5F5F5F5F5F5F5F5F5F5F5F5F5F5F5F5F5F5F5F5F5F5F5F5F5F5F5F5F5F5F5F5F5F5F5F5F5F5F5F5F5F5F5F5F5F5F5F5F5F5F5F5F5F5F5F5F5F5F5F5F5F5F5F5F5F5F5F5F5F5F5F5F5F5F5F5F5F5F5F5F5F5F5F5F5F5F5F5F5F5F5
310
F5F5F5F5F5F5F5F5F5F5F5F5F5F5F5F5F5F5F5F5F5F5F5F5F5F5F5F5F5F5F5F5F5F5F5F5F5F5F5F5F5F5F5F5F5F5F5F5F5F5F5F5F5F5F5F5F5F5F5F5F5F5F5F5F5F5F5F5F5F5F5F5F5F5E2F5F5F5E2E2EFE2F5F5F5E2F5F5F5F5F5F5F5F5F5F5F5F5F5F5F5F5F5F5F5F5F5F5F5F5F5F5F5F5F5F5F5F5F5F5F5F5F5F5F5F5F5
310
F5F5F5F5F5F5F5F5F5F5F5F5F5F5F5F5F5F5F5F5F5F5F5F5F5F5F5F5F5F5F5F5F5F5F5F5F5F5F5F5F5F5F5F5F5F5F5F5F5F5F5F5F5F5F5F5F5F5F5F5F5F5F5F5F5F5F5F5F5F5F5F5F5F5F5F5F5F5F5F5F5F5F5F5F5F5F5F5F5F5F5F5F5F5F5F5F5F5F5F5F5F5F5F5F5F5F5F5F5F5F5F5F5F5F5F5F5F5F5F5F5F5F5F5F5F5F5
310
E2F5F5F5E2E2EFE2F5F5F5E2F5F5F5F5F5F5F5F5F5F5F5F5F5F5F5F5F5F5F5F5F5F5F5F5F5F5F5F5F5F5F5F5F5F5F5F5F5F5F5F5F5F5F5F5F5F5F5F5F5F5F5F5F5F5F5F5F5F5F5F5F5F5F5F5F5F5F5F5F5F5F5F5F5F5F5F5F5F5F5F5F5F5F5F5F5F5F5F5F5F5F5F5F5F5F5F5F5F5F5F5F5F5F5F5F5F5F5F5F5F5F5F5F5F5F5
310
F5F5F5F5F5F5F5F5F5F5F5F5F5F5F5F5F5F5F5F5F5F5F5F5F5F5F5F5F5F5F5F5F5F5F5F5F5F5F5F5F5F5F5F5F5F5F5F5F5F5F5F5F5E2F5F5F5E2E2EFE2F5F5F5E2F5F5F5F5F5F5F5F5F5F5F5F5F5F5F5F5F5F5F5F5F5F5F5F5F5F5F5F5F5F5F5F5F5F5F5F5F5F5F5F5F5F5F5F5F5F5F5F5F5F5F5F5F5F5F5F5F5F5F5F5F5F5
310
F5F5F5F5F5F5F5F5F5F5F5F5F5F5F5F5F5F5F5F5F5F5F5F5F5F5F5F5F5F5F5F5F5F5F5F5F5F5F5F5F5F5F5F5F5F5F5F5F5F5F5F5F5F5F5F5F5F5F5F5F5F5F5F5F5F5F5F5F5F5F5F5F5F5F5F5F5F5F5F5F5F5F5F5F5F5F5F5F5F5F5F5F5F5F5F5F5F5F5F5F5F5F5F5F5F5E2F5F5F5E2E2EFE2F5F5F5E2F5F5F5F5F5F5F5F5F5
310
F5F5F5F5F5F5F5F5F5F5F5F5F5F5F5F5F5F5F5F5F5F5F5F5F5F5F5F5F5F5F5F5F5F5F5F5F5F5F5F5F5F5F5F5F5F5F5F5F5F5F5F5F5F5F5F5F5F5F5F5F5F5F5F5F5F5F5F5F5F5F5F5F5F5F5F5F5F5F5F5F5F5F5F5F5F5F5F5F5F5F5F5F5F5F5F5F5F5F5F5F5F5F5F5F5F5F5F5F5F5F5F5F5F5F5F5F5F5F5F5F5F5F5F5F5F5F5
310
F5F5F5F5F5F5F5F5F5F5F5F5F5F5F5F5F5F5F5F5F5F5F5F5F5F5F5F5F5F5F5F5E2F5F5F5E2E2EFE2F5F5F5E2E2E2E2E2E2E2E2F5F5F5F5F5F5F5F5F5E2E2E2E2E2E2E2E2E2E2E2E2E2E2E2F5F5F5F5F5F5F5F5F5E2E2E2E2E2E2E2E2E2E2E2E2E2E2E2E2F5F5F5F5F5F5F5F5E2E2E2E2E2E2E2E2E2E2E2E2E2E2E2E2F5F5F5
310
F5F5F5F5F5E2E2E2E2E2E2E2E2E2E2E2E2E2E2E2E2F5F5F5F5F5F5F5F5E2E2E2E2E2E2E2E2E2E2E2E2E2E2E2E2F5F5F5F5F5F5F5F5F5E2E2E2E2E2E2E2E2E2E2E2E2E2E2E2F5F5F5F5F5F5F5F5F5E2E2E2E2E2E2E2E2F5F5F5E2E2EFE2F5F5F5F5F5F5F5F5F5F5F5F5F5F5F5F5F5F5F5F5F5F5F5F5F5F5F5F5F5F5F5F5F5F5
310
F5F5F5F5F5F5F5F5F5F5F5F5F5F5F5F5F5F5F5F5F5F5F5F5F5F5F5F5F5F5F5F5F5F5F5F5F5F5F5F5F5F5F5F5F5F5F5F5F5F5F5F5F5F5F5F5F5F5F5F5F5F5F5F5F5F5F5F5F5F5F5F5F5F5F5F5F5F5F5F5F5F5F5F5F5F5F5F5F5F5F5F5F5F5F5F5F5F5F5F5F5F5F5F5F5F5F5F5F5F5F5F5F5F5F5F5F5F5F5F5F5F5F5F5F5F5F5
310
F5F5F5F5F5F5F5F5F5F5F5F5F5F5F5E2E2EFE2F5F5F5F5F5F5F5F5F5F5F5F5F5F5F5F5F5F5F5F5F5F5F5F5F5F5F5F5F5F5F5F5F5F5F5F5F5F5F5F5F5F5F5F5F5F5F5F5F5F5F5F5F5F5F5F5F5F5F5F5F5F5F5F5F5F5F5F5F5F5F5F5F5F5F5F5F5F5F5F5F5F5F5F5F5F5F5F5F5F5F5F5F5F5F5F5F5F5F5F5F5F5F5F5F5F5F5F5
310
F5F5F5F5F5F5F5F5F5F5F5F5F5F5F5F5F5F5F5F5F5F5F5F5F5F5F5F5F5F5F5F5F5F5F5F5F5F5F5F5F5F5F5F5F5F5F5F5F5F5F5F5F5F5F5F5F5F5F5F5F5F5F5F5F5F5F5F5E2EFEFE2F5F5F5F5F5F5F5F5F5F5F5F5F5F5F5F5F5F5F5F5F5F5F5F5F5F5F5F5F5F5F5F5F5F5F5F5F5F5F5F5F5F5F5F5F5F5F5F5F5F5F5F5F5F5F5
310
F5F5F5F5F5F5F5F5F5F5F5F5F5F5F5F5F5F5F5F5F5F5F5F5F5F5F5F5F5F5F5F5F5F5F5F5F5F5F5F5F5F5F5F5F5F5F5F5F5F5F5F5F5F5F5F5F5F5F5F5F5F5F5F5F5F5F5F5F5F5F5F5F5F5F5F5F5F5F5F5F5F5F5F5F5F5F5F5F5F5F5F5F5F5F5F5F5F5F5F5F5F5F5F5F5F5F5F5F5F5F5F5F5F5F5F5F5F5F5F5F5E2EF
  0
CELLSTYLEMAP
  5
3B8E
102
{ACAD_REACTORS
330
3B8C
102
}
330
3B8C
100
AcDbCellStyleMap
 90
        3
300
CELLSTYLE
  1
TABLEFORMAT_BEGIN
 90
        5
170
     1
 91
        0
 92
    32768
 62
   257
 93
        1
300
CONTENTFORMAT
  1
CONTENTFORMAT_BEGIN
 90
        0
 91
        0
 92
        4
 93
        0
300

 40
0.0
140
1.0
 94
        5
 62
     0
340
10
144
0.25
309
CONTENTFORMAT_END
171
     1
301
MARGIN
  1
CELLMARGIN_BEGIN
 40
0.06
 40
0.06
 40
0.06
 40
0.06
 40
0.06
 40
0.06
309
CELLMARGIN_END
 94
        6
 95
        1
302
GRIDFORMAT
  1
GRIDFORMAT_BEGIN
 90
        0
 91
        1
 62
     0
 92
       -2
340
0
 93
        0
 40
0.045
309
GRIDFORMAT_END
 95
        2
302
GRIDFORMAT
  1
GRIDFORMAT_BEGIN
 90
        0
 91
        1
 62
     0
 92
       -2
340
0
 93
        0
 40
0.045
309
GRIDFORMAT_END
 95
        4
302
GRIDFORMAT
  1
GRIDFORMAT_BEGIN
 90
        0
 91
        1
 62
     0
 92
       -2
340
0
 93
        0
 40
0.045
309
GRIDFORMAT_END
 95
        8
302
GRIDFORMAT
  1
GRIDFORMAT_BEGIN
 90
        0
 91
        1
 62
     0
 92
       -2
340
0
 93
        0
 40
0.045
309
GRIDFORMAT_END
 95
       16
302
GRIDFORMAT
  1
GRIDFORMAT_BEGIN
 90
        0
 91
        1
 62
     0
 92
       -2
340
0
 93
        0
 40
0.045
309
GRIDFORMAT_END
 95
       32
302
GRIDFORMAT
  1
GRIDFORMAT_BEGIN
 90
        0
 91
        1
 62
     0
 92
       -2
340
0
 93
        0
 40
0.045
309
GRIDFORMAT_END
309
TABLEFORMAT_END
  1
CELLSTYLE_BEGIN
 90
        1
 91
        1
300
_TITLE
309
CELLSTYLE_END
300
CELLSTYLE
  1
TABLEFORMAT_BEGIN
 90
        5
170
     1
 91
        0
 92
        0
 62
   257
 93
        1
300
CONTENTFORMAT
  1
CONTENTFORMAT_BEGIN
 90
        0
 91
        0
 92
        4
 93
        0
300

 40
0.0
140
1.0
 94
        5
 62
     0
340
10
144
0.18
309
CONTENTFORMAT_END
171
     1
301
MARGIN
  1
CELLMARGIN_BEGIN
 40
0.06
 40
0.06
 40
0.06
 40
0.06
 40
0.06
 40
0.06
309
CELLMARGIN_END
 94
        6
 95
        1
302
GRIDFORMAT
  1
GRIDFORMAT_BEGIN
 90
        0
 91
        1
 62
     0
 92
       -2
340
0
 93
        0
 40
0.045
309
GRIDFORMAT_END
 95
        2
302
GRIDFORMAT
  1
GRIDFORMAT_BEGIN
 90
        0
 91
        1
 62
     0
 92
       -2
340
0
 93
        0
 40
0.045
309
GRIDFORMAT_END
 95
        4
302
GRIDFORMAT
  1
GRIDFORMAT_BEGIN
 90
        0
 91
        1
 62
     0
 92
       -2
340
0
 93
        0
 40
0.045
309
GRIDFORMAT_END
 95
        8
302
GRIDFORMAT
  1
GRIDFORMAT_BEGIN
 90
        0
 91
        1
 62
     0
 92
       -2
340
0
 93
        0
 40
0.045
309
GRIDFORMAT_END
 95
       16
302
GRIDFORMAT
  1
GRIDFORMAT_BEGIN
 90
        0
 91
        1
 62
     0
 92
       -2
340
0
 93
        0
 40
0.045
309
GRIDFORMAT_END
 95
       32
302
GRIDFORMAT
  1
GRIDFORMAT_BEGIN
 90
        0
 91
        1
 62
     0
 92
       -2
340
0
 93
        0
 40
0.045
309
GRIDFORMAT_END
309
TABLEFORMAT_END
  1
CELLSTYLE_BEGIN
 90
        2
 91
        1
300
_HEADER
309
CELLSTYLE_END
300
CELLSTYLE
  1
TABLEFORMAT_BEGIN
 90
        5
170
     1
 91
        0
 92
        0
 62
   257
 93
        1
300
CONTENTFORMAT
  1
CONTENTFORMAT_BEGIN
 90
        0
 91
        0
 92
        4
 93
        0
300

 40
0.0
140
1.0
 94
        2
 62
     0
340
10
144
0.18
309
CONTENTFORMAT_END
171
     1
301
MARGIN
  1
CELLMARGIN_BEGIN
 40
0.06
 40
0.06
 40
0.06
 40
0.06
 40
0.06
 40
0.06
309
CELLMARGIN_END
 94
        6
 95
        1
302
GRIDFORMAT
  1
GRIDFORMAT_BEGIN
 90
        0
 91
        1
 62
     0
 92
       -2
340
0
 93
        0
 40
0.045
309
GRIDFORMAT_END
 95
        2
302
GRIDFORMAT
  1
GRIDFORMAT_BEGIN
 90
        0
 91
        1
 62
     0
 92
       -2
340
0
 93
        0
 40
0.045
309
GRIDFORMAT_END
 95
        4
302
GRIDFORMAT
  1
GRIDFORMAT_BEGIN
 90
        0
 91
        1
 62
     0
 92
       -2
340
0
 93
        0
 40
0.045
309
GRIDFORMAT_END
 95
        8
302
GRIDFORMAT
  1
GRIDFORMAT_BEGIN
 90
        0
 91
        1
 62
     0
 92
       -2
340
0
 93
        0
 40
0.045
309
GRIDFORMAT_END
 95
       16
302
GRIDFORMAT
  1
GRIDFORMAT_BEGIN
 90
        0
 91
        1
 62
     0
 92
       -2
340
0
 93
        0
 40
0.045
309
GRIDFORMAT_END
 95
       32
302
GRIDFORMAT
  1
GRIDFORMAT_BEGIN
 90
        0
 91
        1
 62
     0
 92
       -2
340
0
 93
        0
 40
0.045
309
GRIDFORMAT_END
309
TABLEFORMAT_END
  1
CELLSTYLE_BEGIN
 90
        3
 91
        2
300
_DATA
309
CELLSTYLE_END
  0
XRECORD
  5
3B8D
102
{ACAD_REACTORS
330
3B8C
102
}
330
3B8C
100
AcDbXrecord
280
     1
102
ACAD_ROUNDTRIP_PRE2007_TABLESTYLE
 90
        4
 91
        0
  1

 92
        4
 93
        0
  2

 94
        4
 95
        0
  3

  0
ENDSEC
  0
EOF
